<?xml version="1.0" standalone="no"?>
<!DOCTYPE svg PUBLIC "-//W3C//DTD SVG 1.1//EN" "http://www.w3.org/Graphics/SVG/1.1/DTD/svg11.dtd" >
<svg xmlns="http://www.w3.org/2000/svg">
<metadata></metadata>
<defs>
<font id="misolight" horiz-adv-x="416" >
<font-face units-per-em="1000" ascent="800" descent="-200" />
<missing-glyph horiz-adv-x="192" />
<glyph horiz-adv-x="0" />
<glyph horiz-adv-x="333" />
<glyph unicode=" "  horiz-adv-x="192" />
<glyph unicode="&#x09;" horiz-adv-x="192" />
<glyph unicode="&#xa0;" horiz-adv-x="192" />
<glyph unicode="!" horiz-adv-x="200" d="M71 38q0 12 8.5 20.5t20.5 8.5t21 -8.5t9 -20.5t-9 -20.5t-21 -8.5t-20.5 8.5t-8.5 20.5zM120 188q0 -8 -6 -13.5t-14 -5.5t-13.5 5.5t-5.5 13.5v400q0 8 5.5 13.5t13.5 5.5t14 -5.5t6 -13.5v-400z" />
<glyph unicode="&#x22;" horiz-adv-x="352" d="M256 627q19 0 19 -19v-100q0 -19 -19 -19t-19 19v100q0 19 19 19zM77 608q0 19 19 19t19 -19v-100q0 -19 -19 -19t-19 19v100z" />
<glyph unicode="#" horiz-adv-x="458" d="M409 389h-81v-122h81q19 0 19 -19t-19 -19h-81v-201q0 -19 -19 -19q-8 0 -13.5 5.5t-5.5 13.5v201h-122v-201q0 -19 -19 -19q-8 0 -13.5 5.5t-5.5 13.5v201h-81q-8 0 -13.5 5.5t-5.5 13.5t5.5 13.5t13.5 5.5h81v122h-81q-8 0 -13.5 5.5t-5.5 13.5t5.5 13.5t13.5 5.5h81 v181q0 8 5.5 13.5t13.5 5.5q19 0 19 -19v-181h122v181q0 8 5.5 13.5t13.5 5.5q19 0 19 -19v-181h81q19 0 19 -19t-19 -19zM290 267v122h-122v-122h122z" />
<glyph unicode="$" d="M285 285q47 -40 49 -102q0 -63 -47 -102q-27 -24 -67 -31v-62q0 -8 -5.5 -13.5t-13.5 -5.5t-14 5.5t-6 13.5v62q-2 0 -3 1q-61 9 -93 64q-8 17 7 27q17 9 26 -7q24 -40 66 -46q12 -2 16 -2h1q35 0 61 23q35 28 33 73q0 45 -35 72l-125 103q-46 37 -48 99q0 59 46 99 q26 23 64 30v62q0 8 6 13.5t14 5.5t13.5 -5.5t5.5 -13.5v-62h1q1 -1 2 -1q59 -10 89 -62q10 -17 -7 -27q-16 -9 -26 7q-20 38 -63 44q-10 2 -15 2h-1q-33 0 -58 -22q-34 -27 -32 -70q0 -42 33 -69z" />
<glyph unicode="%" horiz-adv-x="593" d="M437 226q45 0 76.5 -31.5t31.5 -76.5t-31.5 -76.5t-76.5 -31.5t-76.5 31.5t-31.5 76.5t31.5 76.5t76.5 31.5zM437 46q30 0 51 21t21 51t-21 51t-51 21t-51 -21t-21 -51t21 -51t51 -21zM265 518q0 -45 -31.5 -76.5t-76.5 -31.5t-76.5 31.5t-31.5 76.5t31.5 76.5t76.5 31.5 t76.5 -31.5t31.5 -76.5zM85 518q0 -30 21 -51t51 -21t51 21t21 51t-21 51t-51 21t-51 -21t-21 -51zM445 625q7 -3 10 -10.5t-1 -14.5l-280 -580q-3 -7 -10.5 -10t-14.5 1q-7 3 -10 10.5t1 14.5l280 580q3 7 10.5 10t14.5 -1z" />
<glyph unicode="&#x26;" horiz-adv-x="493" d="M449 23q-14 -12 -27 3l-74 97l-28 -47q-31 -52 -90 -64t-108 21q-50 34 -59 93q-9 58 27 107l86 112l-74 96l-1 1v0q-39 60 -5 124q17 29 46 45.5t63 15.5q33 -1 61 -19.5t42 -48.5q14 -31 10.5 -64t-23.5 -60l-70 -90l82 -106l37 -48l40 67q4 7 11.5 8.5t14.5 -2.5 q16 -9 7 -26l-48 -80l83 -108q12 -16 -3 -27zM133 464l68 -88l63 83q31 39 10 83q-21 45 -71 47q-49 2 -73 -42q-25 -43 3 -83zM287 96l35 59l-46 60l-75 98l-80 -103q-27 -37 -20 -78q6 -42 43 -67q36 -25 78 -16q41 9 65 47z" />
<glyph unicode="'" horiz-adv-x="192" d="M115 508q0 -8 -5.5 -13.5t-13.5 -5.5t-14 5.5t-6 13.5v100q0 8 6 13.5t14 5.5t13.5 -5.5t5.5 -13.5v-100z" />
<glyph unicode="(" horiz-adv-x="268" d="M231 676q-61 -78 -93 -171q-31 -89 -31 -187t31 -187q32 -96 93 -171q11 -17 -4 -27q-14 -12 -27 3q-64 82 -98 183q-33 96 -33 199t33 199q34 101 98 183q13 15 27 3q16 -11 4 -27z" />
<glyph unicode=")" horiz-adv-x="269" d="M166 527q33 -96 33 -199t-33 -199q-33 -98 -99 -183q-11 -15 -27 -3q-14 11 -3 27q61 75 93 171q31 93 31 187t-31 187q-32 93 -93 171q-5 6 -4 14.5t7 12.5q16 12 27 -3q66 -85 99 -183z" />
<glyph unicode="*" d="M329 367l-103 59v-118q0 -8 -5 -13t-13 -5t-13 5t-5 13v118l-103 -59q-6 -4 -13.5 -2t-11.5 9q-9 16 7 25l103 59l-103 59q-16 9 -7 25q4 7 11.5 9t13.5 -2l103 -59v118q0 8 5 13t13 5t13 -5t5 -13v-118l103 59q16 9 25 -7t-7 -25l-102 -59l102 -59q16 -9 7 -25t-25 -7z " />
<glyph unicode="+" d="M328 307q8 0 13.5 -5.5t5.5 -13.5t-5.5 -13.5t-13.5 -5.5h-101v-101q0 -8 -5.5 -13.5t-13.5 -5.5q-19 0 -19 19v101h-101q-19 0 -19 19t19 19h101v101q0 19 19 19q8 0 13.5 -5.5t5.5 -13.5v-101h101z" />
<glyph unicode="," horiz-adv-x="192" d="M73 -31q21 8 21 31v30h-14q-8 0 -13 5t-5 13t5 13t13 5h32q8 0 13 -5t5 -13v-48q0 -47 -43 -65q-16 -7 -24 10q-7 16 10 24z" />
<glyph unicode="-" d="M347 288q0 -8 -5.5 -13.5t-13.5 -5.5h-240q-8 0 -14 5.5t-6 13.5t6 13.5t14 5.5h240q8 0 13.5 -5.5t5.5 -13.5z" />
<glyph unicode="." horiz-adv-x="192" d="M67 38q0 12 8.5 20.5t20.5 8.5t20.5 -8.5t8.5 -20.5t-8.5 -20.5t-20.5 -8.5t-20.5 8.5t-8.5 20.5z" />
<glyph unicode="/" d="M335 666q18 -7 11 -25l-240 -660q-6 -18 -24 -11q-17 7 -12 25l240 660q8 18 25 11z" />
<glyph unicode="0" d="M208 9q-58 0 -99 40.5t-41 98.5v340q0 58 41 98.5t99 40.5q57 0 98 -40.5t41 -98.5v-340q0 -58 -41 -98.5t-98 -40.5zM107 488v-340q0 -42 29.5 -71.5t71.5 -29.5q41 0 70.5 29.5t29.5 71.5v340q0 42 -29.5 71.5t-70.5 29.5q-42 0 -71.5 -29.5t-29.5 -71.5z" />
<glyph unicode="1" d="M125 474q-13 -13 -27 0q-12 14 0 28l120 120q10 9 21 4q12 -5 12 -18v-580q0 -8 -5.5 -13.5t-13.5 -5.5q-19 0 -19 19v534z" />
<glyph unicode="2" d="M82 531q-15 10 -7 27q30 49 83 64q56 16 105 -12q51 -29 66 -82q17 -53 -10 -105q-170 -323 -195 -372h192q8 0 13.5 -5.5t5.5 -13.5t-5.5 -13.5t-13.5 -5.5h-224q-11 0 -17 9q-5 10 0 19l210 400q19 38 7 76q-11 39 -48 59q-35 20 -75 9q-39 -11 -60 -47q-11 -16 -27 -7 z" />
<glyph unicode="3" d="M208 51q33 8 54 35.5t21 61.5v60q0 42 -29.5 71.5t-71.5 29.5q-19 0 -19 19t19 19q42 0 71.5 29.5t29.5 71.5v40q0 34 -21 61.5t-54 35.5q-33 9 -65 -4t-48 -43q-10 -15 -27 -7q-15 10 -7 27q24 41 67.5 59t89.5 5q46 -12 74.5 -49.5t28.5 -84.5v-40q0 -38 -19 -70 t-50 -50q31 -18 50 -50t19 -70v-60q0 -47 -28.5 -84.5t-74.5 -50.5q-46 -12 -89.5 6t-67.5 59q-8 17 7 27q17 8 27 -7q16 -30 48 -43t65 -4z" />
<glyph unicode="4" d="M74 149q-10 0 -16 8q-5 8 -2 17l140 440q2 7 9 10.5t15 1.5q13 -3 13 -18q0 -4 -1 -6q-118 -370 -132 -415h155v121q0 19 19 19t19 -19v-121h61q19 0 19 -19t-19 -19h-61v-121q0 -19 -19 -19t-19 19v121h-181z" />
<glyph unicode="5" d="M98 299q-14 5 -14 19v286q0 8 5.5 13.5t13.5 5.5h208q19 0 19 -19t-19 -19h-189v-217q55 42 121 24q46 -12 74.5 -49.5t28.5 -84.5v-110q0 -47 -28.5 -84.5t-74.5 -50.5q-46 -12 -89.5 6t-66.5 59q-10 17 7 27q16 9 26 -7q17 -30 48.5 -43t64.5 -4q33 8 54 35.5t21 61.5 v110q0 34 -21 61.5t-54 35.5q-33 9 -64.5 -4t-48.5 -43q-9 -12 -22 -9z" />
<glyph unicode="6" d="M217 9q-58 0 -98.5 40.5t-40.5 98.5v340q0 47 28.5 84.5t74.5 49.5q46 13 89.5 -5t67.5 -59q8 -17 -7 -27q-16 -9 -27 7q-16 30 -48 43t-65 4q-33 -8 -54 -35.5t-21 -61.5v-144q41 43 101 43q58 0 98.5 -40.5t40.5 -98.5v-100q0 -58 -40.5 -98.5t-98.5 -40.5zM116 248 v-100q0 -42 30 -71.5t71 -29.5q42 0 71.5 29.5t29.5 71.5v100q0 42 -29.5 71.5t-71.5 29.5q-41 0 -71 -29.5t-30 -71.5z" />
<glyph unicode="7" d="M85 505q-8 0 -13.5 5.5t-5.5 13.5v80q0 8 5.5 13.5t13.5 5.5h240q10 0 15 -7q6 -7 4 -17l-140 -576q-5 -18 -23 -14q-15 3 -15 19q0 3 1 4q123 509 134 553h-197v-61q0 -19 -19 -19z" />
<glyph unicode="8" d="M208 9q-57 0 -98 40.5t-41 98.5v60q0 38 19 70t50 50q-31 18 -50 50t-19 70v40q0 58 41 98.5t98 40.5q58 0 99 -40.5t41 -98.5v-40q0 -38 -19 -70t-50 -50q31 -18 50 -50t19 -70v-60q0 -58 -41 -98.5t-99 -40.5zM108 448q0 -42 29.5 -71.5t70.5 -29.5q42 0 71.5 29.5 t29.5 71.5v40q0 42 -29.5 71.5t-71.5 29.5q-41 0 -70.5 -29.5t-29.5 -71.5v-40zM108 208v-60q0 -42 29.5 -71.5t70.5 -29.5q42 0 71.5 29.5t29.5 71.5v60q0 42 -29.5 71.5t-71.5 29.5q-41 0 -70.5 -29.5t-29.5 -71.5z" />
<glyph unicode="9" d="M199 249q-57 0 -98 40.5t-41 98.5v100q0 58 41 98.5t98 40.5q58 0 99 -40.5t41 -98.5v-340q0 -47 -29 -84.5t-75 -50.5q-45 -12 -89 6.5t-67 58.5q-8 17 7 27q17 9 26 -7q17 -30 48.5 -43t64.5 -4q33 8 54 35.5t21 61.5v144q-40 -43 -101 -43zM99 488v-100 q0 -42 29.5 -71.5t70.5 -29.5q42 0 71.5 29.5t29.5 71.5v100q0 42 -29.5 71.5t-71.5 29.5q-41 0 -70.5 -29.5t-29.5 -71.5z" />
<glyph unicode=":" horiz-adv-x="192" d="M126 38q0 -12 -8.5 -20.5t-21.5 -8.5q-12 0 -20.5 8.5t-8.5 20.5t8.5 20.5t20.5 8.5q13 0 21.5 -8.5t8.5 -20.5zM96 447q13 0 21.5 -8.5t8.5 -20.5t-8.5 -20.5t-21.5 -8.5q-12 0 -20.5 8.5t-8.5 20.5t8.5 20.5t20.5 8.5z" />
<glyph unicode=";" horiz-adv-x="192" d="M112 66q8 0 13 -5t5 -13v-48q0 -47 -43 -65q-16 -7 -24 10q-7 16 10 24q21 8 21 31v30h-14q-8 0 -13 5t-5 13t5 13t13 5h32zM96 389q-12 0 -20.5 8.5t-8.5 20.5t8.5 20.5t20.5 8.5t20.5 -8.5t8.5 -20.5t-8.5 -20.5t-20.5 -8.5z" />
<glyph unicode="&#x3c;" d="M334 76q-11 -15 -27 -3l-240 200q-6 6 -6 15t6 15l240 200q17 11 27 -3q5 -5 5 -12q0 -9 -7 -15l-222 -185l222 -185q7 -6 7 -15q0 -7 -5 -12z" />
<glyph unicode="=" d="M328 227q19 0 19 -19t-19 -19h-240q-8 0 -13.5 5.5t-5.5 13.5t5.5 13.5t13.5 5.5h240zM328 387q19 0 19 -19t-19 -19h-240q-8 0 -13.5 5.5t-5.5 13.5t5.5 13.5t13.5 5.5h240z" />
<glyph unicode="&#x3e;" d="M77 88q0 9 7 15l222 185l-222 185q-7 6 -7 15q0 8 4 12q12 14 27 3l240 -200q7 -6 7 -15t-7 -15l-240 -200q-14 -12 -27 3q-4 4 -4 12z" />
<glyph unicode="?" horiz-adv-x="357" d="M225 568q-35 27 -80 19q-44 -9 -68 -49q-9 -16 -26 -7q-17 11 -7 27q32 55 93 66q62 13 112 -25q49 -39 54 -101t-40 -108l-50 -51q-29 -29 -29 -71v-80q0 -8 -6 -13.5t-14 -5.5t-13.5 5.5t-5.5 13.5v80q0 58 40 98l51 51q32 34 29 78q-3 46 -40 73zM164 67q12 0 21 -8.5 t9 -20.5t-9 -20.5t-21 -8.5t-20.5 8.5t-8.5 20.5t8.5 20.5t20.5 8.5z" />
<glyph unicode="@" horiz-adv-x="764" d="M600 535q90 -90 90 -217v-186q0 -49 -34.5 -83.5t-83.5 -34.5h-200q-49 0 -83.5 34.5t-34.5 83.5t34.5 83.5t83.5 34.5h82v80q0 24 -14 44t-37 30q-50 20 -89 -18q-12 -12 -25 0q-13 13 0 26q26 25 60.5 31.5t67.5 -6.5q33 -14 53 -43t20 -64v-280h82q34 0 58 24t24 58 v186q0 113 -79 192q-82 80 -193 80q-112 0 -192 -80t-80 -192v-180q0 -111 80 -193q79 -79 192 -79h110q7 0 12.5 -5.5t5.5 -12.5q0 -8 -5 -13t-13 -5h-110q-127 0 -217 90q-91 89 -91 218v180q0 128 91 217q89 91 217 91q129 0 218 -91zM290 132q0 -34 24 -58t58 -24h82 v164h-82q-34 0 -58 -24t-24 -58z" />
<glyph unicode="A" horiz-adv-x="432" d="M234 613l160 -580q2 -7 -1.5 -14.5t-11.5 -9.5t-15 2.5t-9 11.5q-14 53 -34 126h-214l-35 -126q-4 -18 -23 -14q-7 2 -11.5 9t-2.5 15l160 580q5 14 19 14t18 -14zM120 187h192q-19 69 -54 196.5t-42 152.5q-7 -25 -42 -152.5t-54 -196.5z" />
<glyph unicode="B" horiz-adv-x="428" d="M81 604q0 19 19 19h120q58 0 98.5 -40.5t40.5 -98.5v-36q0 -38 -19 -70t-50 -50q31 -18 50 -50t19 -70v-56q0 -58 -40.5 -98.5t-98.5 -40.5h-120q-19 0 -19 19v572zM321 208q0 42 -30 71.5t-71 29.5h-101v-258h101q41 0 71 29.5t30 71.5v56zM321 484q0 42 -30 71.5 t-71 29.5h-101v-238h101q41 0 71 29.5t30 71.5v36z" />
<glyph unicode="C" horiz-adv-x="385" d="M172 13q-46 13 -74.5 50.5t-28.5 84.5v340q0 47 28.5 84.5t74.5 49.5q46 13 89.5 -5t66.5 -59q10 -17 -7 -27q-17 -9 -26 7q-17 30 -48.5 43t-64.5 4q-33 -8 -54 -35.5t-21 -61.5v-340q0 -34 21 -61.5t54 -35.5q33 -9 64.5 4t48.5 43q9 16 26 7q17 -10 7 -27 q-23 -41 -66.5 -59t-89.5 -6z" />
<glyph unicode="D" horiz-adv-x="428" d="M100 623h120q58 0 98.5 -40.5t40.5 -98.5v-332q0 -58 -40.5 -98.5t-98.5 -40.5h-120q-19 0 -19 19v572q0 19 19 19zM321 484q0 42 -29.5 71.5t-71.5 29.5h-101v-534h101q42 0 71.5 29.5t29.5 71.5v332z" />
<glyph unicode="E" horiz-adv-x="368" d="M100 13q-19 0 -19 19v572q0 19 19 19h200q19 0 19 -19t-19 -19h-181v-238h161q19 0 19 -19t-19 -19h-161v-258h181q19 0 19 -19t-19 -19h-200z" />
<glyph unicode="F" horiz-adv-x="360" d="M100 13q-8 0 -13.5 5.5t-5.5 13.5v572q0 8 5.5 13.5t13.5 5.5h200q19 0 19 -19t-19 -19h-181v-238h161q19 0 19 -19t-19 -19h-161v-277q0 -19 -19 -19z" />
<glyph unicode="G" horiz-adv-x="412" d="M69 148v340q0 47 29 84.5t74 49.5q46 13 89.5 -5t67.5 -59q8 -17 -7 -27q-17 -9 -26 7q-17 30 -49 43t-65 4q-33 -8 -54 -35.5t-21 -61.5v-340q0 -42 30 -71.5t71 -29.5q42 0 71.5 29.5t29.5 71.5v141h-81q-8 0 -13.5 5.5t-5.5 13.5t5.5 13.5t13.5 5.5h100q19 0 19 -19 v-160q0 -58 -40.5 -98.5t-98.5 -40.5q-57 0 -98 40.5t-41 98.5z" />
<glyph unicode="H" horiz-adv-x="440" d="M120 347h201v261q0 8 5.5 13.5t13.5 5.5t14 -5.5t6 -13.5v-580q0 -8 -6 -13.5t-14 -5.5t-13.5 5.5t-5.5 13.5v281h-201v-281q0 -8 -6 -13.5t-14 -5.5t-13.5 5.5t-5.5 13.5v580q0 8 5.5 13.5t13.5 5.5t14 -5.5t6 -13.5v-261z" />
<glyph unicode="I" horiz-adv-x="200" d="M100 9q-8 0 -13.5 5.5t-5.5 13.5v580q0 8 5.5 13.5t13.5 5.5t14 -5.5t6 -13.5v-580q0 -8 -6 -13.5t-14 -5.5z" />
<glyph unicode="J" horiz-adv-x="333" d="M256 148q0 -37 -19 -69.5t-51 -51.5q-32 -18 -69.5 -18t-69.5 18q-15 10 -7 27q9 16 26 7q50 -29 101 0q50 29 50 87v460q0 8 6 13.5t14 5.5t13.5 -5.5t5.5 -13.5v-460z" />
<glyph unicode="K" horiz-adv-x="421" d="M372 624q15 -13 4 -27l-160 -225l162 -336q3 -7 0.5 -14.5t-9.5 -10.5q-17 -9 -26 9l-152 316l-71 -99v-209q0 -8 -6 -13.5t-14 -5.5t-13.5 5.5t-5.5 13.5v580q0 8 5.5 13.5t13.5 5.5t14 -5.5t6 -13.5v-305l225 316q11 16 27 5z" />
<glyph unicode="L" horiz-adv-x="348" d="M100 13q-8 0 -14 5.5t-6 13.5v576q0 8 6 13.5t14 5.5t13.5 -5.5t5.5 -13.5v-557h181q8 0 13.5 -5.5t5.5 -13.5t-5.5 -13.5t-13.5 -5.5h-200z" />
<glyph unicode="M" horiz-adv-x="520" d="M100 9q-19 0 -19 19v580q0 16 15 19q14 3 21 -11q115 -244 143 -303l142 303q7 14 22 11t15 -19v-580q0 -8 -5.5 -13.5t-13.5 -5.5q-19 0 -19 19v494l-124 -262q-5 -11 -17 -11t-18 11q-79 170 -123 262v-494q0 -8 -5.5 -13.5t-13.5 -5.5z" />
<glyph unicode="N" horiz-adv-x="480" d="M384 9q-14 -3 -21 11q-189 390 -244 504v-496q0 -19 -19 -19t-19 19v580q0 16 15 19q14 3 21 -11q189 -390 244 -504v496q0 19 19 19t19 -19v-580q0 -16 -15 -19z" />
<glyph unicode="O" d="M69 488q0 58 40.5 98.5t98.5 40.5t98.5 -40.5t40.5 -98.5v-340q0 -58 -40.5 -98.5t-98.5 -40.5t-98.5 40.5t-40.5 98.5v340zM309 488q0 42 -29.5 71.5t-71.5 29.5t-71.5 -29.5t-29.5 -71.5v-340q0 -42 29.5 -71.5t71.5 -29.5t71.5 29.5t29.5 71.5v340z" />
<glyph unicode="P" horiz-adv-x="400" d="M81 604q0 19 19 19h120q58 0 98.5 -40.5t40.5 -98.5v-56q0 -58 -40.5 -98.5t-98.5 -40.5h-101v-261q0 -19 -19 -19t-19 19v576zM321 484q0 42 -29.5 71.5t-71.5 29.5h-101v-258h101q42 0 71.5 29.5t29.5 71.5v56z" />
<glyph unicode="Q" d="M208 9q-58 0 -98.5 40.5t-40.5 98.5v340q0 58 40.5 98.5t98.5 40.5t98.5 -40.5t40.5 -98.5v-340q0 -67 -53 -110l51 -88q9 -16 -7 -27q-7 -4 -14.5 -1.5t-11.5 9.5l-52 88q-23 -10 -52 -10zM107 488v-340q0 -42 30 -71.5t71 -29.5q42 0 71.5 29.5t29.5 71.5v340 q0 42 -29.5 71.5t-71.5 29.5q-41 0 -71 -29.5t-30 -71.5z" />
<glyph unicode="R" d="M220 623q58 0 98.5 -40.5t40.5 -98.5v-56q0 -47 -27.5 -83.5t-70.5 -49.5l97 -260q7 -18 -11 -25t-25 11l-100 268h-2h-101v-261q0 -19 -19 -19q-8 0 -13.5 5.5t-5.5 13.5v576q0 8 5.5 13.5t13.5 5.5h120zM321 428v56q0 42 -29.5 71.5t-71.5 29.5h-101v-258h101 q42 0 71.5 29.5t29.5 71.5z" />
<glyph unicode="S" horiz-adv-x="382" d="M248 69q39 29 42 76t-30 82l-159 164q-44 45 -39 108q5 62 54 100q50 38 112 25t93 -66q8 -17 -7 -27q-17 -9 -26 7q-24 40 -68 49q-45 8 -80 -19q-37 -27 -40 -72q-3 -47 28 -78l160 -165q45 -45 40 -111q-5 -64 -57 -104q-53 -40 -115 -26q-64 12 -97 69 q-4 7 -1.5 14.5t9.5 11.5q16 9 26 -7q24 -41 70 -51q48 -10 85 20z" />
<glyph unicode="T" horiz-adv-x="380" d="M60 623h260q8 0 14 -5.5t6 -13.5t-6 -13.5t-14 -5.5h-110v-557q0 -8 -6 -13.5t-14 -5.5t-13.5 5.5t-5.5 13.5v557h-111q-8 0 -13.5 5.5t-5.5 13.5t5.5 13.5t13.5 5.5z" />
<glyph unicode="U" horiz-adv-x="424" d="M111 148q0 -42 29.5 -71.5t71.5 -29.5q41 0 70.5 29.5t29.5 71.5v460q0 8 6 13.5t14 5.5t13.5 -5.5t5.5 -13.5v-460q0 -58 -41 -98.5t-98 -40.5q-58 0 -99 40.5t-41 98.5v460q0 8 6 13.5t14 5.5t13.5 -5.5t5.5 -13.5v-460z" />
<glyph unicode="V" horiz-adv-x="448" d="M206 23l-160 580q-2 8 2 15t12 8q18 5 23 -13q113 -408 142 -513l141 513q2 8 9.5 11.5t14.5 1.5q7 -1 11 -8t2 -15l-160 -580q-3 -14 -18 -14t-19 14z" />
<glyph unicode="W" horiz-adv-x="698" d="M190 23l-140 580q-3 19 14 24q8 2 15 -2.5t8 -12.5q94 -386 122 -502l121 502q3 15 19 15q15 0 18 -15q94 -386 122 -502l121 502q5 19 23 15q19 -5 14 -24l-140 -580q-3 -14 -18 -14t-19 14q-93 387 -121 503l-122 -503q-3 -14 -18 -14t-19 14z" />
<glyph unicode="X" horiz-adv-x="422" d="M369 11q-7 -4 -14.5 -1.5t-10.5 9.5l-133 266l-133 -266q-9 -16 -26 -8q-16 9 -8 26l145 291l-135 271q-8 17 8 26q17 8 26 -8l123 -246l123 246q3 7 10.5 9.5t14.5 -1.5q18 -9 9 -26l-136 -271l146 -291q9 -17 -9 -26z" />
<glyph unicode="Y" horiz-adv-x="402" d="M52 625q17 8 26 -8q97 -193 123 -246l123 246q9 16 26 8q16 -9 8 -26l-138 -276v-295q0 -19 -19 -19t-19 19v295l-138 276q-8 17 8 26z" />
<glyph unicode="Z" horiz-adv-x="384" d="M53 32q0 5 1 7q209 497 229 546h-211q-19 0 -19 19t19 19h240q10 0 16 -8q3 -6 3 -11t-1 -7q-209 -497 -229 -546h211q19 0 19 -19t-19 -19h-240q-10 0 -16 8q-3 6 -3 11z" />
<glyph unicode="[" horiz-adv-x="256" d="M100 -67q-19 0 -19 19v732q0 19 19 19h100q19 0 19 -19t-19 -19h-81v-694h81q19 0 19 -19t-19 -19h-100z" />
<glyph unicode="\" d="M106 655l240 -660q7 -18 -11 -25t-25 11l-240 660q-5 18 12 25q7 3 14.5 -0.5t9.5 -10.5z" />
<glyph unicode="]" horiz-adv-x="256" d="M156 703q8 0 13.5 -5.5t5.5 -13.5v-732q0 -8 -5.5 -13.5t-13.5 -5.5h-100q-19 0 -19 19t19 19h81v694h-81q-19 0 -19 19t19 19h100z" />
<glyph unicode="^" horiz-adv-x="500" d="M80 414q-15 12 -2 27l158 180q5 6 14 6q10 0 14 -6l158 -180q13 -15 -2 -27q-15 -13 -27 1q-119 137 -143 164l-143 -164q-12 -14 -27 -1z" />
<glyph unicode="_" horiz-adv-x="500" d="M500 -93q8 0 13.5 -5.5t5.5 -13.5t-5.5 -13.5t-13.5 -5.5h-500q-8 0 -14 5.5t-6 13.5t6 13.5t14 5.5h500z" />
<glyph unicode="`" horiz-adv-x="500" d="M212 641l100 -90q14 -11 2 -25q-13 -13 -26 -1l-100 90q-14 12 -1 25t25 1z" />
<glyph unicode="a" horiz-adv-x="352" d="M160 250h82v80q0 24 -13.5 44t-36.5 30q-23 9 -46.5 4.5t-40.5 -21.5q-13 -14 -25 0q-12 13 0 25q25 25 59.5 31.5t66.5 -6.5q33 -13 52.5 -42.5t19.5 -64.5v-298q0 -8 -5 -13t-13 -5h-100q-49 0 -83.5 34.5t-34.5 83.5t34.5 83.5t83.5 34.5zM78 132q0 -34 24 -58t58 -24 h82v164h-82q-34 0 -58 -24t-24 -58z" />
<glyph unicode="b" horiz-adv-x="388" d="M100 14q-8 0 -13 5t-5 13v596q0 8 5 13t13 5t13 -5t5 -13v-186h82q49 0 83.5 -34.5t34.5 -83.5v-192q0 -49 -34.5 -83.5t-83.5 -34.5h-100zM200 406h-82v-356h82q34 0 58 24t24 58v192q0 34 -24 58t-58 24z" />
<glyph unicode="c" horiz-adv-x="328" d="M143 19q-34 13 -53.5 43t-19.5 66v200q0 36 19.5 66t53.5 43q33 14 68 6.5t60 -32.5q13 -13 0 -25t-25 0q-39 38 -90 18q-23 -10 -36.5 -30.5t-13.5 -45.5v-200q0 -25 13.5 -45.5t36.5 -30.5q51 -21 90 18q12 12 25 0t0 -25q-25 -25 -60 -32.5t-68 6.5z" />
<glyph unicode="d" horiz-adv-x="388" d="M188 14q-49 0 -83.5 34.5t-34.5 83.5v192q0 49 34.5 83.5t83.5 34.5h82v186q0 8 5 13t13 5t13 -5t5 -13v-596q0 -8 -5 -13t-13 -5h-100zM188 406q-34 0 -58 -24t-24 -58v-192q0 -34 24 -58t58 -24h82v356h-82z" />
<glyph unicode="e" horiz-adv-x="368" d="M143 19q-33 14 -53 43.5t-20 65.5v200q0 49 34.5 83.5t83.5 34.5t83.5 -34.5t34.5 -83.5v-100q0 -8 -5 -13t-13 -5h-182v-82q0 -25 14 -45.5t37 -30.5q50 -21 89 18q12 12 25 0t0 -25q-25 -25 -60 -32.5t-68 6.5zM188 410q-34 0 -58 -24t-24 -58v-82h164v82q0 34 -24 58 t-58 24z" />
<glyph unicode="f" horiz-adv-x="296" d="M56 406q-8 0 -13 5t-5 13t5 13t13 5h62v86q0 49 34.5 83.5t83.5 34.5q8 0 13 -5t5 -13t-5 -13t-13 -5q-34 0 -58 -24t-24 -58v-86h82q8 0 13 -5t5 -13t-5 -13t-13 -5h-82v-378q0 -8 -5 -13t-13 -5t-13 5t-5 13v378h-62z" />
<glyph unicode="g" horiz-adv-x="384" d="M188 14q-49 0 -83.5 34.5t-34.5 83.5v192q0 49 34.5 83.5t83.5 34.5h100q8 0 13 -5t5 -13v-496q0 -36 -19.5 -66t-53.5 -43q-33 -14 -68 -6.5t-60 32.5q-13 13 0 25t25 0q39 -39 90 -18q23 10 36.5 30.5t13.5 45.5v86h-82zM188 406q-34 0 -58 -24t-24 -58v-192 q0 -34 24 -58t58 -24h82v356h-82z" />
<glyph unicode="h" horiz-adv-x="392" d="M100 10q-8 0 -13 5t-5 13v600q0 8 5 13t13 5t13 -5t5 -13v-186h82q49 0 83.5 -34.5t34.5 -83.5v-296q0 -8 -5 -13t-13 -5t-13 5t-5 13v296q0 34 -24 58t-58 24h-82v-378q0 -8 -5 -13t-13 -5z" />
<glyph unicode="i" horiz-adv-x="200" d="M100 550q-11 0 -19.5 8.5t-8.5 19.5t8.5 19.5t19.5 8.5q12 0 20 -8.5t8 -19.5t-8 -19.5t-20 -8.5zM118 28q0 -8 -5 -13t-13 -5t-13 5t-5 13v400q0 8 5 13t13 5t13 -5t5 -13v-400z" />
<glyph unicode="j" horiz-adv-x="208" d="M108 550q-11 0 -19.5 8.5t-8.5 19.5t8.5 19.5t19.5 8.5q12 0 20 -8.5t8 -19.5t-8 -19.5t-20 -8.5zM8 -190q-8 0 -13 5t-5 13t5 13t13 5q34 0 58 24t24 58v500q0 8 5 13t13 5t13 -5t5 -13v-500q0 -49 -34.5 -83.5t-83.5 -34.5z" />
<glyph unicode="k" horiz-adv-x="380" d="M205 273l130 -236q9 -16 -7 -25q-14 -9 -24 7l-124 226l-62 -70v-147q0 -8 -5 -13t-13 -5t-13 5t-5 13v600q0 8 5 13t13 5t13 -5t5 -13v-399l188 211q13 13 26 1q14 -12 1 -25z" />
<glyph unicode="l" horiz-adv-x="200" d="M128 12q-49 29 -49 85v531q0 7 5.5 12.5t12.5 5.5t12.5 -5t5.5 -13v-531q0 -35 31 -53q16 -9 7 -25t-25 -7z" />
<glyph unicode="m" horiz-adv-x="592" d="M282 406h-164v-378q0 -7 -5.5 -12.5t-12.5 -5.5q-8 0 -13 5t-5 13v396q0 8 5 13t13 5h300q49 0 83.5 -34.5t34.5 -83.5v-296q0 -7 -5.5 -12.5t-12.5 -5.5q-8 0 -13 5t-5 13v296q0 34 -24 58t-58 24h-82v-378q0 -7 -5.5 -12.5t-12.5 -5.5q-8 0 -13 5t-5 13v378z" />
<glyph unicode="n" horiz-adv-x="392" d="M100 10q-8 0 -13 5t-5 13v396q0 8 5 13t13 5h100q49 0 83.5 -34.5t34.5 -83.5v-296q0 -8 -5 -13t-13 -5t-13 5t-5 13v296q0 34 -24 58t-58 24h-82v-378q0 -8 -5 -13t-13 -5z" />
<glyph unicode="o" horiz-adv-x="376" d="M188 10q-49 0 -83.5 34.5t-34.5 83.5v200q0 49 34.5 83.5t83.5 34.5t83.5 -34.5t34.5 -83.5v-200q0 -49 -34.5 -83.5t-83.5 -34.5zM188 410q-34 0 -58 -24t-24 -58v-200q0 -34 24 -58t58 -24t58 24t24 58v200q0 34 -24 58t-58 24z" />
<glyph unicode="p" horiz-adv-x="388" d="M100 -190q-8 0 -13 5t-5 13v596q0 8 5 13t13 5h100q49 0 83.5 -34.5t34.5 -83.5v-192q0 -49 -34.5 -83.5t-83.5 -34.5h-82v-186q0 -8 -5 -13t-13 -5zM282 324q0 34 -24 58t-58 24h-82v-356h82q34 0 58 24t24 58v192z" />
<glyph unicode="q" horiz-adv-x="388" d="M188 14q-49 0 -83.5 34.5t-34.5 83.5v192q0 49 34.5 83.5t83.5 34.5h100q8 0 13 -5t5 -13v-596q0 -8 -5 -13t-13 -5t-13 5t-5 13v186h-82zM188 406q-34 0 -58 -24t-24 -58v-192q0 -34 24 -58t58 -24h82v356h-82z" />
<glyph unicode="r" horiz-adv-x="299" d="M100 10q-8 0 -13 5t-5 13v396q0 8 5 13t13 5h100q30 0 59 -16q16 -9 7 -24q-9 -16 -25 -7q-19 11 -41 11h-82v-378q0 -8 -5 -13t-13 -5z" />
<glyph unicode="s" horiz-adv-x="329" d="M210 66q27 25 24 61q-2 36 -32 57l-93 66q-43 29 -46 81q-3 51 35 87q38 35 89 27t77 -53q9 -17 -6 -25q-16 -9 -25 7q-18 30 -51 35q-34 5 -60 -18q-25 -23 -23 -58q3 -34 31 -54l93 -65q44 -31 47 -85t-36 -90t-93 -28q-54 10 -80 55q-9 16 7 25t25 -7q18 -32 54 -37 q36 -6 63 19z" />
<glyph unicode="t" horiz-adv-x="296" d="M56 406q-8 0 -13 5t-5 13t5 13t13 5h62v186q0 8 5 13t13 5t13 -5t5 -13v-186h82q8 0 13 -5t5 -13t-5 -13t-13 -5h-82v-278q0 -34 24 -58t58 -24q8 0 13 -5t5 -13t-5 -13t-13 -5q-49 0 -83.5 34.5t-34.5 83.5v278h-62z" />
<glyph unicode="u" horiz-adv-x="392" d="M192 14q-49 0 -83.5 34.5t-34.5 83.5v296q0 8 5 13t13 5t13 -5t5 -13v-296q0 -34 24 -58t58 -24h82v378q0 8 5 13t13 5t13 -5t5 -13v-396q0 -8 -5 -13t-13 -5h-100z" />
<glyph unicode="v" horiz-adv-x="370" d="M168 23l-120 400q-2 7 1.5 13.5t10.5 8.5t14 -1.5t8 -10.5q78 -258 103 -342l103 342q2 7 8.5 10.5t13.5 1.5t10.5 -8.5t1.5 -13.5l-120 -400q-3 -13 -17 -13t-17 13z" />
<glyph unicode="w" horiz-adv-x="538" d="M151 24l-100 400q-2 7 2 13.5t11 7.5q17 5 22 -13q58 -235 82 -330l83 330q3 14 17 14t18 -14q58 -235 82 -330l83 330q4 18 22 13q7 -1 11 -7.5t2 -13.5l-100 -400q-4 -14 -18 -14t-17 14q-59 235 -83 330l-82 -330q-4 -14 -18 -14t-17 14z" />
<glyph unicode="x" horiz-adv-x="360" d="M60 12q-16 9 -7 25l107 195l-103 187q-9 16 7 25q14 9 24 -7l92 -168l93 168q8 16 24 7t7 -25l-103 -187l107 -195q9 -16 -7 -25t-24 7l-97 175l-96 -175q-10 -16 -24 -7z" />
<glyph unicode="y" horiz-adv-x="369" d="M50 -190q-8 0 -13 5t-5 13t5 13t13 5q27 0 49 16q21 16 30 42l37 124l-119 395q-5 16 12 22q18 5 23 -12l102 -342l103 342q5 17 23 12q17 -6 12 -22l-120 -400l-39 -129q-11 -36 -43 -61q-31 -23 -70 -23z" />
<glyph unicode="z" horiz-adv-x="344" d="M54 32q0 6 1 8q164 320 187 366h-170q-8 0 -13 5t-5 13t5 13t13 5h200q10 0 15 -9q3 -5 3 -9t-2 -8q-164 -320 -187 -366h171q7 0 12.5 -5.5t5.5 -12.5t-5.5 -12.5t-12.5 -5.5h-200q-12 0 -16 9q-2 2 -2 9z" />
<glyph unicode="{" horiz-adv-x="256" d="M147 408q0 -50 -41 -80q41 -30 41 -80v-220q0 -26 17.5 -43.5t43.5 -17.5q19 0 19 -19t-19 -19q-41 0 -70 29t-29 70v220q0 25 -18 43t-43 18q-19 0 -19 19t19 19q25 0 43 18t18 43v200q0 41 29 70t70 29q19 0 19 -19t-19 -19q-25 0 -43 -18t-18 -43v-200z" />
<glyph unicode="|" horiz-adv-x="208" d="M109 847q19 0 19 -19v-1000q0 -19 -19 -19t-19 19v1000q0 19 19 19z" />
<glyph unicode="}" horiz-adv-x="256" d="M108 248q0 50 41 80q-41 30 -41 80v200q0 25 -17.5 43t-42.5 18q-8 0 -14 5.5t-6 13.5t6 13.5t14 5.5q41 0 70 -29t29 -70v-200q0 -26 17.5 -43.5t43.5 -17.5q8 0 13.5 -5.5t5.5 -13.5t-5.5 -13.5t-13.5 -5.5q-25 0 -43 -18t-18 -43v-220q0 -41 -29 -70t-70 -29 q-8 0 -14 5.5t-6 13.5t6 13.5t14 5.5q25 0 42.5 18t17.5 43v220z" />
<glyph unicode="~" d="M353 293q15 -10 6 -25q-27 -39 -72 -47q-46 -8 -84 20l-12 9q-25 19 -55 13q-30 -5 -47 -31q-11 -15 -26 -5q-14 11 -5 25q27 39 72 47q46 8 83 -20l12 -9q25 -19 56 -13q30 5 47 31q11 14 25 5z" />
<glyph unicode="&#xa1;" horiz-adv-x="200" d="M100 447q12 0 21 -8.5t9 -20.5t-9 -20.5t-21 -8.5t-20.5 8.5t-8.5 20.5t8.5 20.5t20.5 8.5zM100 287q8 0 14 -5.5t6 -13.5v-400q0 -8 -6 -13.5t-14 -5.5t-13.5 5.5t-5.5 13.5v400q0 8 5.5 13.5t13.5 5.5z" />
<glyph unicode="&#xa2;" d="M191 403q-50 -21 -50 -75v-200q0 -54 50 -75q15 -6 30 -6h1q33 0 57 24q13 13 27 0q13 -14 0 -27q-28 -28 -65 -34v-62q0 -8 -5.5 -13.5t-13.5 -5.5t-14 5.5t-6 13.5v62q-16 4 -26 8q-34 13 -54 43.5t-20 66.5v200q0 36 20 66.5t54 43.5q10 4 26 8v62q0 8 6 13.5t14 5.5 t13.5 -5.5t5.5 -13.5v-62q37 -6 65 -34q13 -13 0 -27q-14 -13 -27 0q-26 24 -57 24h-1q-15 0 -30 -6z" />
<glyph unicode="&#xa3;" d="M348 51q19 0 19 -19t-19 -19h-280q-16 0 -19 16q-2 16 13 21q30 11 48.5 37t18.5 58v164h-61q-8 0 -13.5 5.5t-5.5 13.5t5.5 13.5t13.5 5.5h61v161q0 40 24.5 72t63.5 43q39 10 77 -5t58 -50q9 -17 -8 -27q-16 -9 -26 7q-13 24 -38.5 34.5t-52.5 3.5q-26 -7 -43 -29 t-17 -49v-161h101q19 0 19 -19t-19 -19h-101v-164q0 -55 -36 -94h217z" />
<glyph unicode="&#xa4;" horiz-adv-x="700" d="M660 403q5 -3 5 -10v-296q0 -7 -7 -11l-60 -30l-121 -61v0l-61 -30l-1 -1h-1q-1 -1 -3 -1v0q-3 0 -3 1h-1q-1 0 -2 1l-363 181q-7 4 -7 11v297q0 1 1 2v1q0 1 1 2v1l121 208q5 10 16 5l363 -181l1 -1h1zM173 646l-109 -187l342 -171l109 188zM399 -5v270l-339 169v-270z M483 25l98 49l-1 269l-97 -48v-270zM641 104v283l-106 76l-112 -194v-274l36 18v289q0 8 7 11l121 61q4 3 12 -1q5 -3 5 -10l1 -277zM147 210q-7 4 -7 11v123q0 6 6 11q5 3 12 0l146 -73q7 -4 7 -11v-123q0 -8 -6 -11q-4 -2 -6 -2t-6 2zM165 325v-97l122 -61v97z" />
<glyph unicode="&#xa5;" d="M189 28v121h-97q-19 0 -19 19t19 19h97v122h-97q-19 0 -19 19t19 19h85l-126 252q-8 17 8 26q17 8 26 -8q97 -193 123 -246l123 246q9 16 26 8q16 -9 8 -26l-126 -252h93q19 0 19 -19t-19 -19h-105v-122h105q19 0 19 -19t-19 -19h-105v-121q0 -19 -19 -19t-19 19z" />
<glyph unicode="&#xa6;" horiz-adv-x="208" d="M104 247q19 0 19 -19v-400q0 -19 -19 -19t-19 19v400q0 19 19 19zM104 847q19 0 19 -19v-400q0 -19 -19 -19t-19 19v400q0 19 19 19z" />
<glyph unicode="&#xa7;" d="M282 373q51 -40 40 -105q-9 -45 -45 -70q33 -32 35 -78q0 -50 -38 -85q-39 -33 -90 -25q-51 10 -76 53q-8 17 7 27q17 9 26 -7q17 -29 50 -35q32 -5 58 16q26 22 24 55q0 33 -26 54l-113 89q-50 42 -39 106q8 44 45 70q-33 32 -35 78q0 52 38 85q39 33 90 25 q51 -10 76 -53q8 -17 -7 -27q-17 -9 -26 7q-17 29 -50 35q-33 5 -58 -16q-26 -22 -24 -55q0 -33 26 -54zM284 275q8 42 -25 68l-87 69q-33 -16 -39 -51q-8 -42 25 -68l87 -69q33 16 39 51z" />
<glyph unicode="&#xa8;" horiz-adv-x="500" d="M302 578q0 11 8.5 19.5t19.5 8.5q12 0 20 -8.5t8 -19.5t-8 -19.5t-20 -8.5q-11 0 -19.5 8.5t-8.5 19.5zM170 550q-11 0 -19.5 8.5t-8.5 19.5t8.5 19.5t19.5 8.5q12 0 20 -8.5t8 -19.5t-8 -19.5t-20 -8.5z" />
<glyph unicode="&#xa9;" horiz-adv-x="718" d="M344 447q-20 -5 -32.5 -22t-12.5 -37v-140q0 -21 12.5 -37.5t32.5 -21.5q19 -5 38 3t30 26q9 16 26 7q17 -10 7 -27q-16 -28 -47.5 -41t-63.5 -5q-33 9 -53.5 35.5t-20.5 60.5v140q0 34 20.5 60.5t53.5 35.5q32 8 63.5 -5t47.5 -41q10 -17 -7 -27q-17 -9 -26 7 q-11 18 -30 26t-38 3zM669 318q0 -126 -91 -219q-90 -90 -219 -90q-128 0 -218 90q-91 91 -91 219t91 219q90 90 218 90q129 0 219 -90q91 -93 91 -219zM359 47q113 0 192 79q79 81 79 192q0 112 -79 191q-78 80 -192 80q-113 0 -191 -80q-79 -79 -79 -191q0 -111 79 -192 q79 -79 191 -79z" />
<glyph unicode="&#xaa;" horiz-adv-x="305" d="M176 623q29 -8 47 -31.5t18 -53.5v-210q0 -8 -5.5 -13t-12.5 -5h-70q-37 0 -62.5 25.5t-25.5 62.5t25.5 62.5t62.5 25.5h52v52q0 17 -11 31.5t-28 18.5q-37 10 -58 -24q-9 -16 -25 -7q-17 9 -6 25q14 26 42 37.5t57 3.5zM101 398q0 -22 15 -37t37 -15h52v104h-52 q-22 0 -37 -15.5t-15 -36.5z" />
<glyph unicode="&#xab;" horiz-adv-x="419" d="M344 408q0 -4 -3 -9q-50 -92 -59 -107l63 -115q3 -5 3 -9q0 -10 -10 -17q-18 -9 -26 8l-68 123q-6 10 0 19l64 116q9 16 26 8q10 -7 10 -17zM158 151q-18 -9 -26 8l-68 123q-6 10 0 19l64 116q9 16 26 8q10 -7 10 -17q0 -4 -3 -9q-50 -92 -59 -107l63 -115q3 -5 3 -9 q0 -10 -10 -17z" />
<glyph unicode="&#xac;" d="M328 307q19 0 19 -19v-120q0 -19 -19 -19q-8 0 -13.5 5.5t-5.5 13.5v101h-221q-8 0 -13.5 5.5t-5.5 13.5t5.5 13.5t13.5 5.5h240z" />
<glyph unicode="&#xad;" d="M347 288q0 -8 -5.5 -13.5t-13.5 -5.5h-240q-8 0 -14 5.5t-6 13.5t6 13.5t14 5.5h240q8 0 13.5 -5.5t5.5 -13.5z" />
<glyph unicode="&#xae;" horiz-adv-x="718" d="M289 149q-8 0 -13.5 5.5t-5.5 13.5v296q0 8 5.5 13.5t13.5 5.5h80q41 0 70.5 -29t29.5 -70q0 -32 -18.5 -57.5t-48.5 -36.5l64 -113q9 -16 -7 -26q-17 -9 -26 7l-73 127h-51v-117q0 -8 -6 -13.5t-14 -5.5zM430 384q0 25 -18 43t-43 18h-60v-122h60q25 0 43 17.5t18 43.5z M50 318q0 128 91 219q90 90 218 90q129 0 219 -90q91 -93 91 -219t-91 -219q-90 -90 -219 -90q-128 0 -218 90q-91 91 -91 219zM359 589q-113 0 -191 -80q-79 -79 -79 -191q0 -111 79 -192q79 -79 191 -79q113 0 192 79q79 81 79 192q0 112 -79 191q-78 80 -192 80z" />
<glyph unicode="&#xaf;" horiz-adv-x="500" d="M500 767q8 0 13.5 -5.5t5.5 -13.5t-5.5 -13.5t-13.5 -5.5h-500q-8 0 -14 5.5t-6 13.5t6 13.5t14 5.5h500z" />
<glyph unicode="&#xb0;" horiz-adv-x="313" d="M265 518q0 -45 -32 -76.5t-76 -31.5q-45 0 -76.5 31.5t-31.5 76.5t31.5 76.5t76.5 31.5q44 0 76 -31.5t32 -76.5zM85 518q0 -30 21 -51t51 -21q29 0 50.5 21t21.5 51t-21.5 51t-50.5 21q-30 0 -51 -21t-21 -51z" />
<glyph unicode="&#xb1;" d="M348 32q0 -8 -6 -13.5t-14 -5.5h-240q-8 0 -13.5 5.5t-5.5 13.5t5.5 13.5t13.5 5.5h240q8 0 14 -5.5t6 -13.5zM208 149q-8 0 -13.5 5.5t-5.5 13.5v101h-101q-8 0 -13.5 5.5t-5.5 13.5t5.5 13.5t13.5 5.5h101v101q0 8 5.5 13.5t13.5 5.5t14 -5.5t6 -13.5v-101h100 q8 0 14 -5.5t6 -13.5t-6 -13.5t-14 -5.5h-100v-101q0 -8 -6 -13.5t-14 -5.5z" />
<glyph unicode="&#xb2;" horiz-adv-x="297" d="M218 491l-20 -31q-19 -31 -44.5 -72t-36.5 -58h97q8 0 13 -5t5 -13t-5 -13t-13 -5h-131q-10 0 -16 9q-5 10 1 19l120 188q12 20 6 40q-5 21 -23 32q-20 12 -40 6q-21 -4 -32 -24q-9 -16 -25 -7q-17 9 -6 25q16 31 54 41q36 10 68 -10q30 -18 40 -55q8 -36 -12 -67z" />
<glyph unicode="&#xb3;" horiz-adv-x="296" d="M197 468q34 -26 34 -70v-20q0 -30 -18 -53.5t-47 -31.5t-57 3.5t-42 37.5q-11 16 6 25q16 9 25 -7q21 -34 58 -24q17 4 28 18.5t11 31.5v20q0 21 -15.5 36.5t-36.5 15.5q-7 0 -12.5 5t-5.5 13t5.5 13t12.5 5q30 0 45 26t0 52t-45 26t-45 -26q-9 -16 -25 -7q-17 9 -6 25 q24 44 76 44t76 -44q26 -44 0 -88q-10 -17 -22 -26z" />
<glyph unicode="&#xb4;" horiz-adv-x="500" d="M288 641q13 12 26 -1q12 -14 -1 -25l-100 -90q-13 -12 -26 1t1 25z" />
<glyph unicode="&#xb5;" horiz-adv-x="400" d="M300 446q8 0 13 -5t5 -13v-400q0 -8 -5 -13t-13 -5t-13 5t-5 13v15q-35 -33 -82 -33t-82 33v-215q0 -8 -5 -13t-13 -5t-13 5t-5 13v600q0 8 5 13t13 5t13 -5t5 -13v-300q0 -34 24 -58t58 -24t58 24t24 58v300q0 8 5 13t13 5z" />
<glyph unicode="&#xb6;" horiz-adv-x="480" d="M434 623q19 0 19 -19t-19 -19h-51v-637q0 -19 -19 -19t-19 19v637h-102v-637q0 -19 -19 -19t-19 19v397h-21q-58 0 -98.5 40.5t-40.5 98.5t40.5 98.5t98.5 40.5h250zM205 383v202h-21q-42 0 -71.5 -29.5t-29.5 -71.5t29.5 -71.5t71.5 -29.5h21z" />
<glyph unicode="&#xb7;" horiz-adv-x="192" d="M67 388q0 12 8.5 20.5t20.5 8.5t20.5 -8.5t8.5 -20.5t-8.5 -20.5t-20.5 -8.5t-20.5 8.5t-8.5 20.5z" />
<glyph unicode="&#xb8;" horiz-adv-x="500" d="M233 28q0 8 5.5 13.5t13.5 5.5q19 0 19 -19v-61q0 -58 -49 -86q-15 -10 -27 7q-4 7 -1.5 14.5t9.5 11.5q30 18 30 53v61z" />
<glyph unicode="&#xb9;" horiz-adv-x="234" d="M151 625q11 -5 11 -17v-300q0 -8 -5 -13t-13 -5t-13 5t-5 13v256l-58 -58q-13 -13 -26 0t0 26l89 89q9 9 20 4z" />
<glyph unicode="&#xba;" horiz-adv-x="305" d="M153 626q37 0 62.5 -25.5t25.5 -62.5v-140q0 -37 -25.5 -62.5t-62.5 -25.5t-62.5 25.5t-25.5 62.5v140q0 37 25.5 62.5t62.5 25.5zM153 346q21 0 36.5 15t15.5 37v140q0 21 -15.5 36.5t-36.5 15.5q-22 0 -37 -15.5t-15 -36.5v-140q0 -22 15 -37t37 -15z" />
<glyph unicode="&#xbb;" horiz-adv-x="419" d="M252 168q0 4 3 9q54 99 62 115l-58 107q-3 5 -3 9q0 10 10 17q16 9 26 -8l64 -116q5 -9 0 -19l-68 -123q-4 -7 -11.5 -9.5t-14.5 1.5q-10 7 -10 17zM72 168q0 4 3 9q54 99 62 115l-58 107q-3 5 -3 9q0 10 10 17q16 9 26 -8l64 -116q5 -9 0 -19l-68 -123q-4 -7 -11.5 -9.5 t-14.5 1.5q-10 7 -10 17z" />
<glyph unicode="&#xbc;" horiz-adv-x="598" d="M126 308v256l-58 -58q-13 -13 -26 0t0 26l89 89q9 9 20 4t11 -17v-300q0 -8 -5 -13t-13 -5t-13 5t-5 13zM536 126q8 0 13 -5t5 -13t-5 -13t-13 -5h-34v-62q0 -8 -5 -13t-13 -5t-13 5t-5 13v62h-111q-10 0 -16 8q-5 9 -1 17l89 220q7 17 24 10q11 -5 11 -17q0 -5 -1 -7 q-63 -155 -79 -195h84v42q0 8 5 13t13 5t13 -5t5 -13v-42h34zM432 625q7 -3 10 -10.5t-1 -14.5l-280 -580q-3 -7 -10.5 -10t-14.5 1q-7 3 -10 10.5t1 14.5l280 580q3 7 10.5 10t14.5 -1z" />
<glyph unicode="&#xbd;" horiz-adv-x="596" d="M126 308v256l-58 -58q-13 -13 -26 0t0 26l89 89q9 9 20 4t11 -17v-300q0 -8 -5 -13t-13 -5t-13 5t-5 13zM538 211q-76 -120 -101 -161h97q8 0 13 -5t5 -13t-5 -13t-13 -5h-131q-10 0 -16 9q-5 10 1 19l120 188q12 20 6 40q-5 21 -23 32q-20 12 -40 6q-21 -4 -32 -24 q-9 -16 -25 -7q-17 9 -6 25q16 31 54 41q36 10 68 -10q30 -18 40 -55q8 -36 -12 -67zM432 625q7 -3 10 -10.5t-1 -14.5l-280 -580q-3 -7 -10.5 -10t-14.5 1q-7 3 -10 10.5t1 14.5l280 580q3 7 10.5 10t14.5 -1z" />
<glyph unicode="&#xbe;" horiz-adv-x="628" d="M212 378q0 -30 -18 -53.5t-47 -31.5t-57 3.5t-42 37.5q-11 16 6 25q16 9 25 -7q21 -34 58 -24q17 4 28 18.5t11 31.5v20q0 21 -15.5 36.5t-36.5 15.5q-8 0 -13 5t-5 13t5 13t13 5q30 0 45 26t0 52t-45 26t-45 -26q-9 -16 -25 -7q-17 9 -6 25q24 44 76 44t76 -44 q26 -44 0 -88q-10 -17 -22 -26q34 -26 34 -70v-20zM566 126q8 0 13 -5t5 -13t-5 -13t-13 -5h-34v-62q0 -8 -5 -13t-13 -5t-13 5t-5 13v62h-111q-10 0 -16 8q-5 9 -1 17l89 220q7 17 24 10q11 -5 11 -17q0 -5 -1 -7q-63 -155 -79 -195h84v42q0 8 5 13t13 5t13 -5t5 -13v-42 h34zM462 625q7 -3 10 -10.5t-1 -14.5l-280 -580q-3 -7 -10.5 -10t-14.5 1q-7 3 -10 10.5t1 14.5l280 580q3 7 10.5 10t14.5 -1z" />
<glyph unicode="&#xbf;" horiz-adv-x="357" d="M163 418q0 12 8.5 20.5t20.5 8.5t21 -8.5t9 -20.5t-9 -20.5t-21 -8.5t-20.5 8.5t-8.5 20.5zM108 -143q-50 39 -55 101q-3 63 40 108l51 51q29 29 29 71v80q0 8 5.5 13.5t13.5 5.5t14 -5.5t6 -13.5v-80q0 -57 -41 -98l-50 -51q-32 -32 -29 -78q3 -47 39 -73q36 -29 81 -19 q45 9 68 49q9 16 26 7q15 -10 7 -27q-32 -54 -93 -67q-63 -11 -112 26z" />
<glyph unicode="&#xc0;" horiz-adv-x="432" d="M153 814q-14 12 -1 27q12 14 27 1l100 -90q14 -12 1 -27q-12 -14 -27 -1zM234 613l160 -580q2 -7 -1.5 -14.5t-11.5 -9.5t-15 2.5t-9 11.5q-14 53 -34 126h-214l-35 -126q-4 -18 -23 -14q-7 2 -11.5 9t-2.5 15l160 580q5 14 19 14t18 -14zM120 187h192q-19 69 -54 196.5 t-42 152.5q-7 -25 -42 -152.5t-54 -196.5z" />
<glyph unicode="&#xc1;" horiz-adv-x="432" d="M179 724q-15 -13 -27 1q-13 15 1 27l100 90q15 13 27 -1q13 -15 -1 -27zM234 613l160 -580q2 -7 -1.5 -14.5t-11.5 -9.5t-15 2.5t-9 11.5q-14 53 -34 126h-214l-35 -126q-4 -18 -23 -14q-7 2 -11.5 9t-2.5 15l160 580q5 14 19 14t18 -14zM120 187h192q-19 69 -54 196.5 t-42 152.5q-7 -25 -42 -152.5t-54 -196.5z" />
<glyph unicode="&#xc2;" horiz-adv-x="432" d="M204 823q12 9 24 0l90 -70q15 -11 3 -27q-11 -15 -27 -3q-60 47 -78 61l-78 -61q-6 -5 -14 -4t-13 7q-12 16 3 27zM234 613l160 -580q2 -7 -1.5 -14.5t-11.5 -9.5t-15 2.5t-9 11.5q-14 53 -34 126h-214l-35 -126q-4 -18 -23 -14q-7 2 -11.5 9t-2.5 15l160 580q5 14 19 14 t18 -14zM120 187h192q-19 69 -54 196.5t-42 152.5q-7 -25 -42 -152.5t-54 -196.5z" />
<glyph unicode="&#xc3;" horiz-adv-x="432" d="M116 750q-17 11 -6 27q18 28 53 34q32 6 61 -15l8 -6q15 -10 31 -7q18 3 27 17q11 17 27 6t5 -27q-18 -28 -52 -34q-33 -6 -61 15l-8 6q-15 10 -32 7q-16 -3 -27 -17q-11 -16 -26 -6zM234 613l160 -580q2 -7 -1.5 -14.5t-11.5 -9.5t-15 2.5t-9 11.5q-14 53 -34 126h-214 l-35 -126q-4 -18 -23 -14q-7 2 -11.5 9t-2.5 15l160 580q5 14 19 14t18 -14zM120 187h192q-19 69 -54 196.5t-42 152.5q-7 -25 -42 -152.5t-54 -196.5z" />
<glyph unicode="&#xc4;" horiz-adv-x="432" d="M296 749q-12 0 -20.5 8.5t-8.5 20.5t8.5 20.5t20.5 8.5t20.5 -8.5t8.5 -20.5t-8.5 -20.5t-20.5 -8.5zM107 778q0 12 8.5 20.5t20.5 8.5t20.5 -8.5t8.5 -20.5t-8.5 -20.5t-20.5 -8.5t-20.5 8.5t-8.5 20.5zM234 613l160 -580q2 -7 -1.5 -14.5t-11.5 -9.5t-15 2.5t-9 11.5 q-14 53 -34 126h-214l-35 -126q-4 -18 -23 -14q-7 2 -11.5 9t-2.5 15l160 580q5 14 19 14t18 -14zM120 187h192q-19 69 -54 196.5t-42 152.5q-7 -25 -42 -152.5t-54 -196.5z" />
<glyph unicode="&#xc5;" horiz-adv-x="432" d="M294 788q0 -32 -23 -54.5t-55 -22.5t-54.5 22.5t-22.5 54.5t22.5 54.5t54.5 22.5t55 -22.5t23 -54.5zM174 788q0 -18 12.5 -30.5t29.5 -12.5q18 0 30.5 12.5t12.5 30.5t-12.5 30.5t-30.5 12.5q-17 0 -29.5 -12.5t-12.5 -30.5zM234 613l160 -580q2 -7 -1.5 -14.5 t-11.5 -9.5t-15 2.5t-9 11.5q-14 53 -34 126h-214l-35 -126q-4 -18 -23 -14q-7 2 -11.5 9t-2.5 15l160 580q5 14 19 14t18 -14zM120 187h192q-19 69 -54 196.5t-42 152.5q-7 -25 -42 -152.5t-54 -196.5z" />
<glyph unicode="&#xc6;" horiz-adv-x="617" d="M548 585h-180v-238h160q8 0 14 -5.5t6 -13.5t-6 -13.5t-14 -5.5h-160v-258h180q8 0 14 -5.5t6 -13.5t-6 -13.5t-14 -5.5h-200q-8 0 -13.5 5.5t-5.5 13.5v117h-205l-58 -129q-3 -7 -10.5 -10t-14.5 0q-17 8 -10 26l258 576q5 11 18 11h241q8 0 14 -5.5t6 -13.5t-6 -13.5 t-14 -5.5zM329 187v398h-10q-2 -5 -30.5 -69t-72.5 -161.5t-75 -167.5h188z" />
<glyph unicode="&#xc7;" horiz-adv-x="394" d="M171 13q-45 13 -74 50.5t-29 84.5v340q0 47 29 84.5t74 49.5q46 13 90 -5t67 -59l10 -18q9 -17 -7 -26q-17 -9 -26 7l-10 17q-17 30 -49 43t-65 4q-33 -8 -53.5 -35.5t-20.5 -61.5v-340q0 -35 20.5 -62t53.5 -35q33 -9 65 4t49 43l10 17q9 16 26 7q16 -9 7 -26l-10 -18 q-34 -58 -101 -68v-45q0 -59 -50 -86q-7 -4 -14.5 -2t-11.5 9q-9 17 7 26q30 17 30 53v45q-5 1 -17 3z" />
<glyph unicode="&#xc8;" horiz-adv-x="368" d="M300 585h-181v-238h161q8 0 13.5 -5.5t5.5 -13.5t-5.5 -13.5t-13.5 -5.5h-161v-258h181q8 0 13.5 -5.5t5.5 -13.5t-5.5 -13.5t-13.5 -5.5h-200q-8 0 -14 5.5t-6 13.5v572q0 8 6 13.5t14 5.5h200q8 0 13.5 -5.5t5.5 -13.5t-5.5 -13.5t-13.5 -5.5zM137 814q-15 13 -2 27 q5 6 13.5 6t13.5 -5l100 -90q15 -13 2 -27q-12 -14 -27 -1z" />
<glyph unicode="&#xc9;" horiz-adv-x="368" d="M300 585h-181v-238h161q8 0 13.5 -5.5t5.5 -13.5t-5.5 -13.5t-13.5 -5.5h-161v-258h181q8 0 13.5 -5.5t5.5 -13.5t-5.5 -13.5t-13.5 -5.5h-200q-8 0 -14 5.5t-6 13.5v572q0 8 6 13.5t14 5.5h200q8 0 13.5 -5.5t5.5 -13.5t-5.5 -13.5t-13.5 -5.5zM237 842q15 13 27 -1 t-1 -27l-100 -90q-15 -13 -28 1t2 27z" />
<glyph unicode="&#xca;" horiz-adv-x="368" d="M319 32q0 -8 -5.5 -13.5t-13.5 -5.5h-200q-19 0 -19 19v572q0 19 19 19h200q8 0 13.5 -5.5t5.5 -13.5t-5.5 -13.5t-13.5 -5.5h-181v-238h161q8 0 13.5 -5.5t5.5 -13.5t-5.5 -13.5t-13.5 -5.5h-161v-258h181q8 0 13.5 -5.5t5.5 -13.5zM122 723q-16 -12 -27 3q-12 16 3 27 l90 70q12 9 24 0l90 -70q14 -11 3 -27q-13 -15 -27 -3q-60 47 -78 61z" />
<glyph unicode="&#xcb;" horiz-adv-x="368" d="M300 585h-181v-238h161q19 0 19 -19t-19 -19h-161v-258h181q19 0 19 -19t-19 -19h-200q-19 0 -19 19v572q0 19 19 19h200q19 0 19 -19t-19 -19zM251 778q0 12 8.5 20.5t20.5 8.5t20.5 -8.5t8.5 -20.5t-8.5 -20.5t-20.5 -8.5t-20.5 8.5t-8.5 20.5zM91 778q0 12 8.5 20.5 t20.5 8.5t20.5 -8.5t8.5 -20.5t-8.5 -20.5t-20.5 -8.5t-20.5 8.5t-8.5 20.5z" />
<glyph unicode="&#xcc;" horiz-adv-x="200" d="M163 752q14 -12 1 -27q-12 -14 -27 -1l-100 90q-14 12 -1 27q12 14 27 1zM119 28q0 -19 -19 -19t-19 19v580q0 19 19 19t19 -19v-580z" />
<glyph unicode="&#xcd;" horiz-adv-x="200" d="M81 608q0 19 19 19t19 -19v-580q0 -19 -19 -19t-19 19v580zM36 725q-13 15 1 27l100 90q15 13 27 -1q13 -15 -1 -27l-100 -90q-15 -13 -27 1z" />
<glyph unicode="&#xce;" horiz-adv-x="200" d="M178 723q-60 47 -78 61l-78 -61q-16 -12 -27 3q-12 16 3 27l90 70q12 9 24 0l90 -70q15 -11 3 -27q-11 -15 -27 -3zM119 28q0 -19 -19 -19t-19 19v580q0 19 19 19t19 -19v-580z" />
<glyph unicode="&#xcf;" horiz-adv-x="200" d="M180 749q-12 0 -20.5 8.5t-8.5 20.5t8.5 20.5t20.5 8.5t20.5 -8.5t8.5 -20.5t-8.5 -20.5t-20.5 -8.5zM20 749q-12 0 -20.5 8.5t-8.5 20.5t8.5 20.5t20.5 8.5t20.5 -8.5t8.5 -20.5t-8.5 -20.5t-20.5 -8.5zM100 9q-19 0 -19 19v580q0 19 19 19t19 -19v-580q0 -19 -19 -19z " />
<glyph unicode="&#xd0;" horiz-adv-x="441" d="M94 604q0 8 5.5 13.5t13.5 5.5h120q58 0 99 -40.5t41 -98.5v-332q0 -58 -41 -98.5t-99 -40.5h-120q-8 0 -13.5 5.5t-5.5 13.5v277h-61q-8 0 -13.5 5.5t-5.5 13.5t5.5 13.5t13.5 5.5h61v257zM334 484q0 42 -29.5 71.5t-71.5 29.5h-100v-238h80q8 0 14 -5.5t6 -13.5 t-6 -13.5t-14 -5.5h-80v-258h100q42 0 71.5 29.5t29.5 71.5v332z" />
<glyph unicode="&#xd1;" horiz-adv-x="480" d="M384 9q-14 -3 -21 11q-188 390 -244 504v-496q0 -19 -19 -19q-8 0 -13.5 5.5t-5.5 13.5v580q0 16 15 19q16 3 21 -11q189 -390 244 -504v496q0 8 5.5 13.5t13.5 5.5q19 0 19 -19v-580q0 -16 -15 -19zM166 756q-11 -17 -26 -6q-17 11 -6 27q18 28 53 34q32 6 61 -15l8 -6 q15 -10 31 -7q18 3 27 17q11 17 27 6t5 -27q-18 -28 -52 -34q-33 -6 -61 15l-8 6q-15 10 -32 7q-18 -3 -27 -17z" />
<glyph unicode="&#xd2;" d="M347 488v-340q0 -58 -40.5 -98.5t-98.5 -40.5q-57 0 -98 40.5t-41 98.5v340q0 58 41 98.5t98 40.5q58 0 98.5 -40.5t40.5 -98.5zM208 47q42 0 71.5 29.5t29.5 71.5v340q0 42 -29.5 71.5t-71.5 29.5q-41 0 -71 -29.5t-30 -71.5v-340q0 -42 30 -71.5t71 -29.5zM144 841 q12 14 27 1l100 -90q15 -13 2 -27q-14 -14 -28 -1l-100 90q-13 13 -1 27z" />
<glyph unicode="&#xd3;" d="M348 148q0 -58 -41 -98.5t-99 -40.5q-57 0 -98 40.5t-41 98.5v340q0 58 41 98.5t98 40.5q58 0 99 -40.5t41 -98.5v-340zM208 47q42 0 71.5 29.5t29.5 71.5v340q0 42 -29.5 71.5t-71.5 29.5q-41 0 -70.5 -29.5t-29.5 -71.5v-340q0 -42 29.5 -71.5t70.5 -29.5zM171 724 q-15 -13 -27 1q-13 14 2 27l100 90q5 5 13.5 5t13.5 -6q13 -14 -2 -27z" />
<glyph unicode="&#xd4;" d="M348 148q0 -58 -41 -98.5t-99 -40.5q-57 0 -98 40.5t-41 98.5v340q0 58 41 98.5t98 40.5q58 0 99 -40.5t41 -98.5v-340zM208 47q42 0 71.5 29.5t29.5 71.5v340q0 42 -29.5 71.5t-71.5 29.5q-41 0 -70.5 -29.5t-29.5 -71.5v-340q0 -42 29.5 -71.5t70.5 -29.5zM220 823 l90 -70q15 -10 4 -27q-13 -15 -27 -3q-61 47 -79 61l-78 -61q-14 -12 -27 3q-11 17 4 27l90 70q12 8 23 0z" />
<glyph unicode="&#xd5;" d="M347 148q0 -58 -41 -98.5t-98 -40.5q-58 0 -99 40.5t-41 98.5v340q0 58 41 98.5t99 40.5q57 0 98 -40.5t41 -98.5v-340zM208 47q41 0 70.5 29.5t29.5 71.5v340q0 42 -29.5 71.5t-70.5 29.5q-42 0 -71.5 -29.5t-29.5 -71.5v-340q0 -42 29.5 -71.5t71.5 -29.5zM102 777 q18 28 52 34q33 6 61 -15l8 -6q15 -10 32 -7q16 3 27 17q11 16 26 6q17 -11 6 -27q-18 -28 -53 -34q-32 -6 -61 15l-8 6q-15 10 -31 7q-18 -3 -27 -17q-11 -17 -27 -6t-5 27z" />
<glyph unicode="&#xd6;" d="M347 148q0 -58 -41 -98.5t-98 -40.5q-58 0 -99 40.5t-41 98.5v340q0 58 41 98.5t99 40.5q57 0 98 -40.5t41 -98.5v-340zM208 47q41 0 70.5 29.5t29.5 71.5v340q0 42 -29.5 71.5t-70.5 29.5q-42 0 -71.5 -29.5t-29.5 -71.5v-340q0 -42 29.5 -71.5t71.5 -29.5zM317 778 q0 -12 -8.5 -20.5t-20.5 -8.5q-13 0 -21.5 8.5t-8.5 20.5t8.5 20.5t21.5 8.5q12 0 20.5 -8.5t8.5 -20.5zM157 778q0 -12 -8.5 -20.5t-20.5 -8.5q-13 0 -21.5 8.5t-8.5 20.5t8.5 20.5t21.5 8.5q12 0 20.5 -8.5t8.5 -20.5z" />
<glyph unicode="&#xd7;" d="M322 402q12 -14 0 -28l-87 -86l87 -86q12 -14 0 -28q-14 -12 -28 0l-86 87l-86 -87q-14 -12 -28 0q-12 14 0 28l87 86l-87 86q-12 14 0 28q14 12 28 0l86 -87l86 87q14 12 28 0z" />
<glyph unicode="&#xd8;" horiz-adv-x="426" d="M402 665q17 -10 8 -26l-63 -115q5 -18 5 -36v-340q0 -58 -40.5 -98.5t-98.5 -40.5q-73 0 -114 59l-49 -89q-4 -7 -11.5 -9.5t-14.5 1.5t-9.5 11.5t1.5 14.5l62 115q-4 15 -4 36v340q0 58 40.5 98.5t98.5 40.5q73 0 114 -60l49 90q10 17 26 8zM213 589q-42 0 -71.5 -29.5 t-29.5 -71.5v-315l193 355q-11 27 -36.5 44t-55.5 17zM213 47q41 0 71 29.5t30 71.5v315l-194 -355q12 -28 37 -44.5t56 -16.5z" />
<glyph unicode="&#xd9;" horiz-adv-x="424" d="M212 9q-58 0 -98.5 40.5t-40.5 98.5v460q0 19 19 19q8 0 13.5 -5.5t5.5 -13.5v-460q0 -42 29.5 -71.5t71.5 -29.5q41 0 71 29.5t30 71.5v460q0 19 19 19q8 0 13.5 -5.5t5.5 -13.5v-460q0 -58 -40.5 -98.5t-98.5 -40.5zM148 841q12 14 27 1l100 -90q14 -12 1 -27 q-12 -14 -27 -1l-100 90q-14 12 -1 27z" />
<glyph unicode="&#xda;" horiz-adv-x="424" d="M351 148q0 -58 -40.5 -98.5t-98.5 -40.5t-98.5 40.5t-40.5 98.5v460q0 19 19 19t19 -19v-460q0 -42 29.5 -71.5t71.5 -29.5t71.5 29.5t29.5 71.5v460q0 19 19 19t19 -19v-460zM249 842q15 13 27 -1q13 -15 -1 -27l-100 -90q-15 -13 -27 1q-13 15 1 27z" />
<glyph unicode="&#xdb;" horiz-adv-x="424" d="M352 148q0 -58 -41 -98.5t-99 -40.5q-57 0 -98 40.5t-41 98.5v460q0 8 5.5 13.5t13.5 5.5t14 -5.5t6 -13.5v-460q0 -42 29.5 -71.5t70.5 -29.5q42 0 71.5 29.5t29.5 71.5v460q0 8 5.5 13.5t13.5 5.5t14 -5.5t6 -13.5v-460zM224 823l90 -70q15 -10 4 -27q-13 -15 -27 -3 q-61 47 -79 61l-78 -61q-14 -12 -27 3q-11 17 4 27l90 70q11 9 23 0z" />
<glyph unicode="&#xdc;" horiz-adv-x="424" d="M212 9q-57 0 -98 40.5t-41 98.5v460q0 8 5.5 13.5t13.5 5.5t14 -5.5t6 -13.5v-460q0 -42 29.5 -71.5t70.5 -29.5q42 0 71.5 29.5t29.5 71.5v460q0 8 5.5 13.5t13.5 5.5t14 -5.5t6 -13.5v-460q0 -58 -41 -98.5t-99 -40.5zM263 778q0 12 8.5 20.5t20.5 8.5t21 -8.5t9 -20.5 t-9 -20.5t-21 -8.5t-20.5 8.5t-8.5 20.5zM132 749q-12 0 -20.5 8.5t-8.5 20.5t8.5 20.5t20.5 8.5t21 -8.5t9 -20.5t-9 -20.5t-21 -8.5z" />
<glyph unicode="&#xdd;" horiz-adv-x="402" d="M78 617q97 -193 123 -246l123 246q9 16 26 8q16 -9 8 -26l-138 -276v-295q0 -19 -19 -19q-8 0 -13.5 5.5t-5.5 13.5v295l-138 276q-9 17 9 26q7 4 14.5 1.5t10.5 -9.5zM164 724q-15 -13 -27 1q-13 15 1 27l100 90q15 13 27 -1q14 -14 -1 -27z" />
<glyph unicode="&#xde;" horiz-adv-x="400" d="M220 497q57 0 98 -40.5t41 -98.5v-60q0 -58 -41 -98.5t-98 -40.5h-101v-131q0 -8 -5.5 -13.5t-13.5 -5.5t-14 5.5t-6 13.5v576q0 8 6 13.5t14 5.5t13.5 -5.5t5.5 -13.5v-107h101zM220 197q41 0 70.5 29.5t29.5 71.5v60q0 42 -29.5 71.5t-70.5 29.5h-101v-262h101z" />
<glyph unicode="&#xdf;" horiz-adv-x="428" d="M358 308v-160q0 -57 -40.5 -97.5t-97.5 -40.5q-8 0 -13 5t-5 13t5 13t13 5q42 0 72 30t30 72v160q0 42 -30 72t-72 30q-14 0 -18 14q-2 15 11 21l18 7q46 20 51 68q3 50 -37 76q-41 28 -84 4q-43 -23 -43 -72v-500q0 -8 -5 -13t-13 -5t-13 5t-5 13v500q0 33 16.5 60.5 t45.5 43.5q62 33 121 -6q53 -35 53 -98q0 -8 -1 -11q-5 -50 -44 -82q38 -16 61.5 -50.5t23.5 -76.5z" />
<glyph unicode="&#xe0;" horiz-adv-x="352" d="M160 14q-49 0 -83.5 34.5t-34.5 83.5t34.5 83.5t83.5 34.5h82v80q0 24 -13.5 44t-36.5 30q-23 9 -46.5 4.5t-40.5 -21.5q-13 -14 -25 0q-12 13 0 25q25 25 59.5 31.5t66.5 -6.5q33 -13 52.5 -42.5t19.5 -64.5v-298q0 -8 -5 -13t-13 -5h-100zM160 214q-34 0 -58 -24 t-24 -58t24 -58t58 -24h82v164h-82zM142 641l100 -90q14 -12 1 -25t-25 -1l-100 90q-14 11 -2 25q13 13 26 1z" />
<glyph unicode="&#xe1;" horiz-adv-x="352" d="M278 32q0 -8 -5 -13t-13 -5h-100q-49 0 -83.5 34.5t-34.5 83.5t34.5 83.5t83.5 34.5h82v80q0 24 -13.5 44t-36.5 30q-23 9 -46.5 4.5t-40.5 -21.5q-13 -14 -25 0q-12 13 0 25q25 25 59.5 31.5t66.5 -6.5q33 -13 52.5 -42.5t19.5 -64.5v-298zM78 132q0 -34 24 -58t58 -24 h82v164h-82q-34 0 -58 -24t-24 -58zM142 525q-13 -12 -26 1q-12 14 2 25l100 90q12 12 25 -1t-1 -25z" />
<glyph unicode="&#xe2;" horiz-adv-x="352" d="M160 250h82v80q0 24 -13.5 44t-36.5 30q-23 9 -46.5 4.5t-40.5 -21.5q-13 -14 -25 0q-12 13 0 25q25 25 59.5 31.5t66.5 -6.5q33 -13 52.5 -42.5t19.5 -64.5v-298q0 -8 -5 -13t-13 -5h-100q-49 0 -83.5 34.5t-34.5 83.5t34.5 83.5t83.5 34.5zM78 132q0 -34 24 -58t58 -24 h82v164h-82q-34 0 -58 -24t-24 -58zM169 622q10 8 22 0l90 -70q14 -10 3 -25q-10 -14 -25 -3q-62 48 -79 61l-79 -61q-15 -11 -25 3q-11 15 3 25z" />
<glyph unicode="&#xe3;" horiz-adv-x="352" d="M160 14q-49 0 -83.5 34.5t-34.5 83.5t34.5 83.5t83.5 34.5h82v80q0 24 -13.5 44t-35.5 30q-23 9 -47 4.5t-41 -21.5q-13 -14 -25 0q-12 13 0 25q25 25 59.5 31.5t66.5 -6.5q33 -13 52.5 -42.5t19.5 -64.5v-298q0 -8 -5 -13t-13 -5h-100zM160 214q-34 0 -58 -24t-24 -58 t24 -58t58 -24h82v164h-82zM280 605q14 -11 5 -25q-19 -28 -52 -34q-31 -6 -60 15l-8 6q-13 10 -32 7t-28 -18q-11 -14 -25 -5q-15 11 -5 25q19 28 52 34q31 6 60 -15l8 -6q13 -10 32 -7t28 18q4 6 11.5 7.5t13.5 -2.5z" />
<glyph unicode="&#xe4;" horiz-adv-x="352" d="M160 250h82v80q0 24 -13.5 44t-35.5 30q-23 9 -47 4.5t-41 -21.5q-13 -14 -25 0q-12 13 0 25q25 25 59.5 31.5t66.5 -6.5q33 -13 52.5 -42.5t19.5 -64.5v-298q0 -8 -5 -13t-13 -5h-100q-49 0 -83.5 34.5t-34.5 83.5t34.5 83.5t83.5 34.5zM78 132q0 -34 24 -58t58 -24h82 v164h-82q-34 0 -58 -24t-24 -58zM232 578q0 11 8 19.5t20 8.5q11 0 19.5 -8.5t8.5 -19.5t-8.5 -19.5t-19.5 -8.5q-12 0 -20 8.5t-8 19.5zM100 550q-12 0 -20 8.5t-8 19.5t8 19.5t20 8.5q11 0 19.5 -8.5t8.5 -19.5t-8.5 -19.5t-19.5 -8.5z" />
<glyph unicode="&#xe5;" horiz-adv-x="352" d="M180 664q32 0 54 -22t22 -54t-22 -54t-54 -22t-54 22t-22 54t22 54t54 22zM180 544q18 0 31 13t13 31t-13 31t-31 13t-31 -13t-13 -31t13 -31t31 -13zM160 14q-49 0 -83.5 34.5t-34.5 83.5t34.5 83.5t83.5 34.5h82v80q0 24 -13.5 44t-35.5 30q-23 9 -47 4.5t-41 -21.5 q-13 -14 -25 0q-12 13 0 25q25 25 59.5 31.5t66.5 -6.5q33 -13 52.5 -42.5t19.5 -64.5v-298q0 -8 -5 -13t-13 -5h-100zM160 214q-34 0 -58 -24t-24 -58t24 -58t58 -24h82v164h-82z" />
<glyph unicode="&#xe6;" horiz-adv-x="541" d="M261 65q-20 -31 -55 -46q-33 -14 -68.5 -6.5t-60.5 32.5q-26 25 -32.5 60t7.5 68t43.5 53t65.5 20h82v82q0 25 -14 45.5t-37 30.5q-51 20 -89 -18q-13 -13 -26 0q-13 12 0 25q25 25 60.5 32.5t68.5 -6.5q35 -15 55 -46q35 55 100 55q49 0 83.5 -34.5t34.5 -83.5v-100 q0 -8 -5.5 -13t-12.5 -5h-182v-82q0 -25 13.5 -45.5t36.5 -30.5q51 -21 90 18q13 12 25 0t0 -25q-25 -25 -60 -32.5t-68 6.5q-37 15 -55 46zM279 328v-82h164v82q0 34 -24 58t-58 24t-58 -24t-24 -58zM103 70q38 -39 89 -18q23 10 37 30.5t14 45.5v82h-82q-25 0 -45.5 -14 t-30.5 -37q-21 -50 18 -89z" />
<glyph unicode="&#xe7;" horiz-adv-x="331" d="M143 437q33 14 68.5 6.5t60.5 -32.5q12 -13 0 -25q-13 -13 -26 0q-17 17 -42 22t-47 -4q-23 -10 -37 -30.5t-14 -45.5v-200q0 -25 14 -45.5t37 -30.5q15 -6 31 -6h1q33 0 57 24q13 13 26 0q12 -12 0 -25q-28 -28 -66 -34v-44q0 -57 -49 -85q-16 -9 -24 6q-9 17 6 25 q31 18 31 54v44q-18 4 -27 8q-33 14 -53 43.5t-20 65.5v200q0 36 20 65.5t53 43.5z" />
<glyph unicode="&#xe8;" horiz-adv-x="368" d="M272 45q-25 -25 -60.5 -32.5t-68.5 6.5t-53 43.5t-20 65.5v200q0 49 34.5 83.5t83.5 34.5t83.5 -34.5t34.5 -83.5v-100q0 -8 -5 -13t-13 -5h-182v-82q0 -25 14 -45.5t37 -30.5q51 -21 89 18q13 13 26 0q12 -12 0 -25zM188 410q-34 0 -58 -24t-24 -58v-82h164v82 q0 34 -24 58t-58 24zM150 641l100 -90q14 -11 2 -25q-13 -13 -26 -1l-100 90q-14 12 -1 25q12 14 25 1z" />
<glyph unicode="&#xe9;" horiz-adv-x="368" d="M272 70q12 -12 0 -25q-25 -25 -60.5 -32.5t-68.5 6.5t-53 43.5t-20 65.5v200q0 49 34.5 83.5t83.5 34.5t83.5 -34.5t34.5 -83.5v-100q0 -8 -5 -13t-13 -5h-182v-82q0 -25 14 -45.5t37 -30.5q51 -21 89 18q13 13 26 0zM188 410q-34 0 -58 -24t-24 -58v-82h164v82 q0 34 -24 58t-58 24zM226 641q13 12 26 -1q12 -14 -2 -25l-100 -90q-12 -12 -25 1t1 25z" />
<glyph unicode="&#xea;" horiz-adv-x="368" d="M143 19q-33 14 -53 43.5t-20 65.5v200q0 49 34.5 83.5t83.5 34.5t83.5 -34.5t34.5 -83.5v-100q0 -8 -5 -13t-13 -5h-182v-82q0 -25 14 -45.5t37 -30.5q51 -21 89 18q13 13 26 0q12 -12 0 -25q-25 -25 -60.5 -32.5t-68.5 6.5zM188 410q-34 0 -58 -24t-24 -58v-82h164v82 q0 34 -24 58t-58 24zM109 524q-5 -5 -13 -4t-12 7q-11 15 3 25l90 70q12 8 22 0l90 -70q15 -11 4 -25q-12 -14 -26 -3q-62 48 -79 61z" />
<glyph unicode="&#xeb;" horiz-adv-x="368" d="M70 328q0 49 34.5 83.5t83.5 34.5t83.5 -34.5t34.5 -83.5v-100q0 -8 -5 -13t-13 -5h-182v-82q0 -25 14 -45.5t37 -30.5q51 -21 89 18q13 13 26 0q12 -12 0 -25q-25 -25 -60.5 -32.5t-68.5 6.5t-53 43.5t-20 65.5v200zM188 410q-34 0 -58 -24t-24 -58v-82h164v82 q0 34 -24 58t-58 24zM136 578q0 -11 -8 -19.5t-20 -8.5q-11 0 -19.5 8.5t-8.5 19.5t8.5 19.5t19.5 8.5q12 0 20 -8.5t8 -19.5zM268 550q-11 0 -19.5 8.5t-8.5 19.5t8.5 19.5t19.5 8.5q12 0 20 -8.5t8 -19.5t-8 -19.5t-20 -8.5z" />
<glyph unicode="&#xec;" horiz-adv-x="200" d="M144 526q-13 -13 -26 -1l-100 90q-14 12 -1 25t26 1l100 -90q14 -12 1 -25zM100 446q8 0 13 -5t5 -13v-400q0 -8 -5 -13t-13 -5q-7 0 -12.5 5.5t-5.5 12.5v400q0 7 5.5 12.5t12.5 5.5z" />
<glyph unicode="&#xed;" horiz-adv-x="200" d="M82 428q0 8 5 13t13 5t13 -5t5 -13v-400q0 -8 -5 -13t-13 -5t-13 5t-5 13v400zM183 640q13 -13 -1 -25l-100 -90q-13 -12 -26 1q-12 14 2 25l100 90q12 12 25 -1z" />
<glyph unicode="&#xee;" horiz-adv-x="200" d="M-4 527q-11 14 4 25l90 70q10 8 22 0l90 -70q14 -10 3 -25q-4 -6 -12 -7t-13 4q-62 48 -79 61l-79 -61q-14 -11 -26 3zM119 28q0 -8 -5.5 -13t-12.5 -5t-12.5 5t-5.5 13v400q0 8 5.5 13t12.5 5t12.5 -5t5.5 -13v-400z" />
<glyph unicode="&#xef;" horiz-adv-x="200" d="M48 578q0 -11 -8.5 -19.5t-19.5 -8.5q-12 0 -20 8.5t-8 19.5t8 19.5t20 8.5q11 0 19.5 -8.5t8.5 -19.5zM180 550q-12 0 -20 8.5t-8 19.5t8 19.5t20 8.5q11 0 19.5 -8.5t8.5 -19.5t-8.5 -19.5t-19.5 -8.5zM100 10q-8 0 -13 5t-5 13v400q0 8 5 13t13 5t13 -5t5 -13v-400 q0 -8 -5 -13t-13 -5z" />
<glyph unicode="&#xf0;" horiz-adv-x="376" d="M306 128q0 -49 -34.5 -83.5t-83.5 -34.5t-83.5 34.5t-34.5 83.5v200q0 49 34.5 83.5t83.5 34.5q38 0 68 -22q-21 71 -66 124l-52 -35q-14 -10 -25 5q-9 14 5 25l47 31q-14 15 -48 39q-6 4 -7.5 11.5t2.5 13.5q11 14 25 5q33 -22 59 -48l42 28q6 4 13.5 2.5t11.5 -7.5 t2.5 -13.5t-7.5 -11.5l-38 -25q24 -28 41 -61q45 -82 45 -179v-200zM188 46q34 0 58 24t24 58v200q0 34 -24 58t-58 24t-58 -24t-24 -58v-200q0 -34 24 -58t58 -24z" />
<glyph unicode="&#xf1;" horiz-adv-x="392" d="M275 600q9 14 25 5q14 -11 5 -25q-18 -28 -52 -34q-32 -6 -60 15l-8 6q-13 10 -32 7t-28 -18q-11 -14 -25 -5q-15 11 -5 25q19 28 52 34q31 6 60 -15l8 -6q13 -10 32 -7q18 3 28 18zM200 442q49 0 83.5 -34.5t34.5 -83.5v-296q0 -8 -5 -13t-13 -5t-13 5t-5 13v296 q0 34 -24 58t-58 24h-82v-378q0 -8 -5 -13t-13 -5t-13 5t-5 13v396q0 8 5 13t13 5h100z" />
<glyph unicode="&#xf2;" horiz-adv-x="376" d="M226 525l-100 90q-14 11 -2 25q14 14 26 1l100 -90q14 -12 1 -25q-12 -14 -25 -1zM306 328v-200q0 -49 -34.5 -83.5t-83.5 -34.5t-83.5 34.5t-34.5 83.5v200q0 49 34.5 83.5t83.5 34.5t83.5 -34.5t34.5 -83.5zM188 46q34 0 58 24t24 58v200q0 34 -24 58t-58 24t-58 -24 t-24 -58v-200q0 -34 24 -58t58 -24z" />
<glyph unicode="&#xf3;" horiz-adv-x="376" d="M125 526q-13 13 1 25l100 90q13 13 25 -1q13 -13 -1 -25l-100 -90q-13 -13 -25 1zM306 328v-200q0 -49 -34.5 -83.5t-83.5 -34.5t-83.5 34.5t-34.5 83.5v200q0 49 34.5 83.5t83.5 34.5t83.5 -34.5t34.5 -83.5zM188 46q34 0 58 24t24 58v200q0 34 -24 58t-58 24t-58 -24 t-24 -58v-200q0 -34 24 -58t58 -24z" />
<glyph unicode="&#xf4;" horiz-adv-x="376" d="M109 524q-15 -11 -25 3q-11 15 3 25l90 70q11 9 22 0l90 -70q14 -10 3 -25q-10 -14 -25 -3q-62 48 -79 61zM70 128v200q0 49 34.5 83.5t83.5 34.5t83.5 -34.5t34.5 -83.5v-200q0 -49 -34.5 -83.5t-83.5 -34.5t-83.5 34.5t-34.5 83.5zM188 410q-34 0 -58 -24t-24 -58v-200 q0 -34 24 -58t58 -24t58 24t24 58v200q0 34 -24 58t-58 24z" />
<glyph unicode="&#xf5;" horiz-adv-x="376" d="M113 556q-4 -6 -11.5 -7.5t-13.5 2.5q-14 11 -5 25q19 28 52 34q34 5 60 -15l8 -6q13 -10 32 -7t28 18q11 14 25 5q15 -11 5 -25q-19 -28 -52 -34q-31 -6 -60 15l-8 6q-13 10 -32 7q-17 -3 -28 -18zM306 328v-200q0 -49 -34.5 -83.5t-83.5 -34.5t-83.5 34.5t-34.5 83.5 v200q0 49 34.5 83.5t83.5 34.5t83.5 -34.5t34.5 -83.5zM188 46q34 0 58 24t24 58v200q0 34 -24 58t-58 24t-58 -24t-24 -58v-200q0 -34 24 -58t58 -24z" />
<glyph unicode="&#xf6;" horiz-adv-x="376" d="M136 578q0 -11 -8.5 -19.5t-19.5 -8.5t-19.5 8.5t-8.5 19.5t8.5 19.5t19.5 8.5t19.5 -8.5t8.5 -19.5zM296 578q0 -11 -8.5 -19.5t-19.5 -8.5t-19.5 8.5t-8.5 19.5t8.5 19.5t19.5 8.5t19.5 -8.5t8.5 -19.5zM306 128q0 -49 -34.5 -83.5t-83.5 -34.5t-83.5 34.5t-34.5 83.5 v200q0 49 34.5 83.5t83.5 34.5t83.5 -34.5t34.5 -83.5v-200zM188 46q34 0 58 24t24 58v200q0 34 -24 58t-58 24t-58 -24t-24 -58v-200q0 -34 24 -58t58 -24z" />
<glyph unicode="&#xf7;" d="M178 158q0 12 8.5 20.5t21.5 8.5q12 0 20.5 -8.5t8.5 -20.5t-8.5 -20.5t-20.5 -8.5q-13 0 -21.5 8.5t-8.5 20.5zM208 389q-13 0 -21.5 8.5t-8.5 20.5t8.5 20.5t21.5 8.5q12 0 20.5 -8.5t8.5 -20.5t-8.5 -20.5t-20.5 -8.5zM347 288q0 -8 -5.5 -13.5t-13.5 -5.5h-240 q-8 0 -14 5.5t-6 13.5t6 13.5t14 5.5h240q8 0 13.5 -5.5t5.5 -13.5z" />
<glyph unicode="&#xf8;" horiz-adv-x="386" d="M75 328q0 49 34.5 83.5t83.5 34.5q51 0 85 -36l39 67q9 17 25 6q17 -9 6 -24l-48 -82q11 -24 11 -49v-200q0 -49 -34.5 -83.5t-83.5 -34.5q-51 0 -85 36l-40 -67q-9 -16 -24 -7q-16 9 -7 25l48 82q-10 25 -10 49v200zM193 46q34 0 58 24t24 58v200v5l-148 -254 q25 -33 66 -33zM193 410q-34 0 -58 -24t-24 -58v-200v-5l148 254q-25 33 -66 33z" />
<glyph unicode="&#xf9;" horiz-adv-x="392" d="M129 640q13 13 25 1l100 -90q14 -11 2 -25q-13 -13 -26 -1l-100 90q-14 12 -1 25zM292 14h-100q-49 0 -83.5 34.5t-34.5 83.5v296q0 8 5 13t13 5t13 -5t5 -13v-296q0 -34 24 -58t58 -24h82v378q0 8 5 13t13 5t13 -5t5 -13v-396q0 -8 -5 -13t-13 -5z" />
<glyph unicode="&#xfa;" horiz-adv-x="392" d="M230 641q13 12 26 -1q12 -14 -2 -25l-100 -90q-12 -12 -25 1t1 25zM310 32q0 -8 -5 -13t-13 -5h-100q-49 0 -83.5 34.5t-34.5 83.5v296q0 8 5 13t13 5t13 -5t5 -13v-296q0 -34 24 -58t58 -24h82v378q0 8 5 13t13 5t13 -5t5 -13v-396z" />
<glyph unicode="&#xfb;" horiz-adv-x="392" d="M113 524q-5 -5 -13 -4t-12 7q-10 14 3 25l90 70q12 8 22 0l90 -70q15 -11 4 -25t-26 -3q-62 48 -79 61zM74 428q0 8 5 13t13 5t13 -5t5 -13v-296q0 -34 24 -58t58 -24h82v378q0 8 5 13t13 5t13 -5t5 -13v-396q0 -8 -5 -13t-13 -5h-100q-49 0 -83.5 34.5t-34.5 83.5v296z " />
<glyph unicode="&#xfc;" horiz-adv-x="392" d="M84 578q0 11 8.5 19.5t19.5 8.5q12 0 20 -8.5t8 -19.5t-8 -19.5t-20 -8.5q-11 0 -19.5 8.5t-8.5 19.5zM244 578q0 11 8.5 19.5t19.5 8.5q12 0 20 -8.5t8 -19.5t-8 -19.5t-20 -8.5q-11 0 -19.5 8.5t-8.5 19.5zM192 14q-49 0 -83.5 34.5t-34.5 83.5v296q0 7 5.5 12.5 t12.5 5.5q8 0 13 -5t5 -13v-296q0 -34 24 -58t58 -24h82v378q0 7 5.5 12.5t12.5 5.5q8 0 13 -5t5 -13v-396q0 -8 -5 -13t-13 -5h-100z" />
<glyph unicode="&#xfd;" horiz-adv-x="369" d="M121 526q-12 14 2 25l100 90q12 12 25 -1t-1 -25l-100 -90q-13 -12 -26 1zM82 433l103 -342l102 342q5 17 23 12q17 -6 12 -22l-120 -400l-39 -129q-10 -36 -42 -61q-32 -23 -71 -23q-8 0 -13 5t-5 13t5 13t13 5q27 0 49 16q23 18 30 42l37 124l-119 395q-5 16 12 22 q18 5 23 -12z" />
<glyph unicode="&#xfe;" horiz-adv-x="388" d="M118 -172q0 -8 -5 -13t-13 -5t-13 5t-5 13v800q0 8 5 13t13 5t13 -5t5 -13v-182h82q49 0 83.5 -34.5t34.5 -83.5v-200q0 -49 -34.5 -83.5t-83.5 -34.5h-82v-182zM200 410h-82v-364h82q34 0 58 24t24 58v200q0 34 -24 58t-58 24z" />
<glyph unicode="&#xff;" horiz-adv-x="369" d="M293 578q0 -11 -8.5 -19.5t-19.5 -8.5q-12 0 -20 8.5t-8 19.5t8 19.5t20 8.5q11 0 19.5 -8.5t8.5 -19.5zM105 550q-12 0 -20 8.5t-8 19.5t8 19.5t20 8.5q11 0 19.5 -8.5t8.5 -19.5t-8.5 -19.5t-19.5 -8.5zM163 -106q-10 -36 -42 -61q-32 -23 -71 -23q-8 0 -13 5t-5 13 t5 13t13 5q27 0 49 16q23 18 30 42l37 124l-119 395q-4 17 12 22q18 5 23 -12l103 -342l102 342q5 17 23 12q17 -6 12 -22l-120 -400z" />
<glyph unicode="&#x152;" horiz-adv-x="596" d="M309 52q-41 -43 -101 -43q-58 0 -98.5 40.5t-40.5 98.5v340q0 58 40.5 98.5t98.5 40.5q60 0 101 -43v20q0 19 19 19h200q8 0 13.5 -5.5t5.5 -13.5t-5.5 -13.5t-13.5 -5.5h-181v-117v-121h161q8 0 13.5 -5.5t5.5 -13.5t-5.5 -13.5t-13.5 -5.5h-161v-141v-117h181 q8 0 13.5 -5.5t5.5 -13.5t-5.5 -13.5t-13.5 -5.5h-200q-19 0 -19 19v20zM107 148q0 -42 29.5 -71.5t71.5 -29.5q41 0 71 29.5t30 71.5v20v300v20q0 42 -30 71.5t-71 29.5q-42 0 -71.5 -29.5t-29.5 -71.5v-340z" />
<glyph unicode="&#x153;" horiz-adv-x="568" d="M288 65q-35 -55 -100 -55q-49 0 -83.5 34.5t-34.5 83.5v200q0 49 34.5 83.5t83.5 34.5q65 0 100 -55q35 55 100 55q49 0 83.5 -34.5t34.5 -83.5v-100q0 -8 -5 -13t-13 -5h-182v-82q0 -25 13.5 -45.5t36.5 -30.5q51 -21 90 18q12 12 25 0t0 -25q-25 -25 -60 -32.5t-68 6.5 q-37 15 -55 46zM388 410q-34 0 -58 -24t-24 -58v-82h164v82q0 34 -24 58t-58 24zM188 46q34 0 58 24t24 58v200q0 34 -24 58t-58 24t-58 -24t-24 -58v-200q0 -34 24 -58t58 -24z" />
<glyph unicode="&#x178;" horiz-adv-x="402" d="M78 617q96 -193 122 -246l123 246q9 16 26 8q16 -9 9 -26l-138 -276v-295q0 -8 -6 -13.5t-14 -5.5t-13.5 5.5t-5.5 13.5v295l-138 276q-9 17 9 26q16 9 26 -8zM280 749q-12 0 -20.5 8.5t-8.5 20.5t8.5 20.5t20.5 8.5t21 -8.5t9 -20.5t-9 -20.5t-21 -8.5zM150 778 q0 -12 -9 -20.5t-21 -8.5t-20.5 8.5t-8.5 20.5t8.5 20.5t20.5 8.5t21 -8.5t9 -20.5z" />
<glyph unicode="&#x2c6;" horiz-adv-x="500" d="M329 524q-62 48 -79 61l-79 -61q-15 -11 -25 3q-11 15 3 25l90 70q12 8 22 0l90 -70q15 -11 3 -25q-10 -14 -25 -3z" />
<glyph unicode="&#x2dc;" horiz-adv-x="500" d="M325 600q11 14 25 5q15 -11 5 -25q-19 -28 -52 -34q-31 -6 -60 15l-8 6q-13 10 -32 7q-17 -3 -28 -18q-4 -6 -11.5 -7.5t-13.5 2.5q-14 11 -5 25q19 28 52 34q32 6 60 -15l8 -6q13 -10 32 -7t28 18z" />
<glyph unicode="&#x2000;" horiz-adv-x="432" />
<glyph unicode="&#x2001;" horiz-adv-x="865" />
<glyph unicode="&#x2002;" horiz-adv-x="432" />
<glyph unicode="&#x2003;" horiz-adv-x="865" />
<glyph unicode="&#x2004;" horiz-adv-x="288" />
<glyph unicode="&#x2005;" horiz-adv-x="216" />
<glyph unicode="&#x2006;" horiz-adv-x="144" />
<glyph unicode="&#x2007;" horiz-adv-x="144" />
<glyph unicode="&#x2008;" horiz-adv-x="108" />
<glyph unicode="&#x2009;" horiz-adv-x="173" />
<glyph unicode="&#x200a;" horiz-adv-x="48" />
<glyph unicode="&#x2010;" d="M347 288q0 -8 -5.5 -13.5t-13.5 -5.5h-240q-8 0 -14 5.5t-6 13.5t6 13.5t14 5.5h240q8 0 13.5 -5.5t5.5 -13.5z" />
<glyph unicode="&#x2011;" d="M347 288q0 -8 -5.5 -13.5t-13.5 -5.5h-240q-8 0 -14 5.5t-6 13.5t6 13.5t14 5.5h240q8 0 13.5 -5.5t5.5 -13.5z" />
<glyph unicode="&#x2012;" d="M347 288q0 -8 -5.5 -13.5t-13.5 -5.5h-240q-8 0 -14 5.5t-6 13.5t6 13.5t14 5.5h240q8 0 13.5 -5.5t5.5 -13.5z" />
<glyph unicode="&#x2013;" horiz-adv-x="500" d="M500 307q19 0 19 -19t-19 -19h-500q-8 0 -13.5 5.5t-5.5 13.5t5.5 13.5t13.5 5.5h500z" />
<glyph unicode="&#x2014;" horiz-adv-x="1000" d="M0 269q-8 0 -13.5 5.5t-5.5 13.5t5.5 13.5t13.5 5.5h1000q19 0 19 -19t-19 -19h-1000z" />
<glyph unicode="&#x2018;" horiz-adv-x="192" d="M119 591q-21 -8 -21 -31v-30h14q8 0 13 -5t5 -13t-5 -13t-13 -5h-32q-8 0 -13.5 5t-5.5 13v48q0 21 12 39t31 26q17 7 24 -10t-9 -24z" />
<glyph unicode="&#x2019;" horiz-adv-x="192" d="M72 525q21 8 21 31v30h-13q-8 0 -13.5 5t-5.5 13t5.5 13t13.5 5h32q8 0 13 -5t5 -13v-48q0 -21 -12 -39t-31 -26q-17 -7 -24 10t9 24z" />
<glyph unicode="&#x201a;" horiz-adv-x="191" d="M112 66q8 0 13 -5t5 -13v-48q0 -21 -12 -39t-31 -26q-17 -7 -24 10t9 24q21 8 21 31v30h-13q-8 0 -13.5 5t-5.5 13t5.5 13t13.5 5h32z" />
<glyph unicode="&#x201c;" horiz-adv-x="371" d="M298 591q-21 -8 -21 -31v-30h14q7 0 12.5 -5t5.5 -13t-5.5 -13t-12.5 -5h-32q-7 0 -12.5 5t-5.5 13v48q0 21 12 39t31 26q16 7 24 -10q7 -16 -10 -24zM118 591q-21 -8 -21 -31v-30h14q7 0 12.5 -5t5.5 -13t-5.5 -13t-12.5 -5h-32q-7 0 -12.5 5t-5.5 13v48q0 21 12 39 t31 26q16 7 24 -10q7 -16 -10 -24z" />
<glyph unicode="&#x201d;" horiz-adv-x="372" d="M73 525q21 8 21 31v30h-14q-8 0 -13 5t-5 13t5 13t13 5h32q8 0 13 -5t5 -13v-48q0 -21 -12 -39t-31 -26q-16 -7 -24 10q-7 16 10 24zM242 604q0 8 5 13t13 5h32q8 0 13 -5t5 -13v-48q0 -21 -12 -39t-31 -26q-16 -7 -24 10q-7 16 10 24q21 8 21 31v30h-14q-8 0 -13 5 t-5 13z" />
<glyph unicode="&#x201e;" horiz-adv-x="372" d="M73 -31q21 8 21 31v30h-14q-8 0 -13 5t-5 13t5 13t13 5h32q8 0 13 -5t5 -13v-48q0 -21 -12 -39t-31 -26q-16 -7 -24 10q-7 16 10 24zM253 -31q21 8 21 31v30h-14q-8 0 -13 5t-5 13t5 13t13 5h32q8 0 13 -5t5 -13v-48q0 -21 -12 -39t-31 -26q-16 -7 -24 10q-7 16 10 24z " />
<glyph unicode="&#x2022;" horiz-adv-x="256" d="M128 369q36 0 62 -25.5t26 -61.5t-26 -61.5t-62 -25.5t-61.5 25.5t-25.5 61.5t25.5 61.5t61.5 25.5zM128 229q22 0 37.5 15.5t15.5 37.5t-15.5 37.5t-37.5 15.5t-37 -15.5t-15 -37.5t15 -37.5t37 -15.5z" />
<glyph unicode="&#x2026;" horiz-adv-x="576" d="M88 67q13 0 21.5 -8.5t8.5 -20.5t-8.5 -20.5t-21.5 -8.5q-12 0 -20.5 8.5t-8.5 20.5t8.5 20.5t20.5 8.5zM318 38q0 -12 -8.5 -20.5t-21.5 -8.5q-12 0 -20.5 8.5t-8.5 20.5t8.5 20.5t20.5 8.5q13 0 21.5 -8.5t8.5 -20.5zM459 38q0 12 8.5 20.5t20.5 8.5q13 0 21.5 -8.5 t8.5 -20.5t-8.5 -20.5t-21.5 -8.5q-12 0 -20.5 8.5t-8.5 20.5z" />
<glyph unicode="&#x202f;" horiz-adv-x="173" />
<glyph unicode="&#x2039;" horiz-adv-x="239" d="M164 408q0 -4 -3 -9q-50 -92 -59 -107l63 -115q3 -5 3 -9q0 -10 -10 -17q-18 -9 -26 8l-68 123q-6 10 0 19l64 116q9 16 26 8q10 -7 10 -17z" />
<glyph unicode="&#x203a;" horiz-adv-x="239" d="M176 301q5 -9 0 -19l-68 -123q-4 -7 -11.5 -9.5t-14.5 1.5q-10 7 -10 17q0 4 3 9q54 99 62 115l-58 107q-3 5 -3 9q0 10 10 17q16 9 26 -8z" />
<glyph unicode="&#x205f;" horiz-adv-x="216" />
<glyph unicode="&#x20ac;" d="M224 585q-33 -8 -54 -35.5t-21 -61.5v-71h141q8 0 13.5 -5.5t5.5 -13.5t-5.5 -13.5t-13.5 -5.5h-141v-122h101q8 0 13.5 -5.5t5.5 -13.5t-5.5 -13.5t-13.5 -5.5h-101v-71q0 -34 21 -61.5t54 -35.5q33 -9 64.5 4t48.5 43l10 17q9 16 26 7q16 -9 7 -26l-10 -18 q-23 -40 -67 -58.5t-89 -6.5q-46 13 -75 50.5t-29 84.5v71h-60q-8 0 -14 5.5t-6 13.5t6 13.5t14 5.5h60v122h-60q-8 0 -14 5.5t-6 13.5t6 13.5t14 5.5h60v71q0 47 29 84.5t75 49.5q45 13 89 -5t67 -59l10 -18q9 -17 -7 -26q-17 -9 -26 7l-10 17q-17 30 -48.5 43t-64.5 4z " />
<glyph unicode="&#x2122;" horiz-adv-x="670" d="M392 619q64 -90 85 -120l85 120q9 11 21 6q13 -4 13 -17v-300q0 -7 -5.5 -12.5t-13.5 -5.5q-7 0 -12.5 5t-5.5 13v243l-67 -94q-5 -7 -15 -7q-8 0 -15 7q-37 53 -66 94v-243q0 -7 -5.5 -12.5t-13.5 -5.5q-7 0 -12.5 5t-5.5 13v300q0 14 13 17q12 5 20 -6zM57 586 q-7 0 -12.5 5t-5.5 13t5.5 13t12.5 5h200q8 0 13.5 -5.5t5.5 -12.5t-5.5 -12.5t-13.5 -5.5h-81v-278q0 -7 -5.5 -12.5t-13.5 -5.5q-7 0 -12.5 5t-5.5 13v278h-82z" />
<glyph unicode="&#x25fc;" horiz-adv-x="445" d="M0 445h445v-445h-445v445z" />
</font>
</defs>
</svg>
